  0
SECTION
  2
HEADER
  9
$ACADVER
  1
AC1015
  9
$ACADMAINTVER
 70
     6
  9
$DWGCODEPAGE
  3
ANSI_932
  9
$INSBASE
 10
0.0
 20
0.0
 30
0.0
  9
$EXTMIN
 10
7.5
 20
0.0
 30
0.0
  9
$EXTMAX
 10
1406.625
 20
1931.5
 30
0.0
  9
$LIMMIN
 10
7.5
 20
0.0
  9
$LIMMAX
 10
1406.625
 20
1931.5
  9
$ORTHOMODE
 70
     0
  9
$REGENMODE
 70
     1
  9
$FILLMODE
 70
     1
  9
$QTEXTMODE
 70
     0
  9
$MIRRTEXT
 70
     1
  9
$LTSCALE
 40
1.0
  9
$ATTMODE
 70
     1
  9
$TEXTSIZE
 40
0.2
  9
$TRACEWID
 40
0.05
  9
$TEXTSTYLE
  7
Standard
  9
$CLAYER
  8
ACアダプタ
  9
$CELTYPE
  6
ByLayer
  9
$CECOLOR
 62
   256
  9
$CELTSCALE
 40
1.0
  9
$DISPSILH
 70
     0
  9
$DIMSCALE
 40
1.0
  9
$DIMASZ
 40
0.18
  9
$DIMEXO
 40
0.0625
  9
$DIMDLI
 40
0.38
  9
$DIMRND
 40
0.0
  9
$DIMDLE
 40
0.0
  9
$DIMEXE
 40
0.18
  9
$DIMTP
 40
0.0
  9
$DIMTM
 40
0.0
  9
$DIMTXT
 40
0.18
  9
$DIMCEN
 40
0.09
  9
$DIMTSZ
 40
0.0
  9
$DIMTOL
 70
     0
  9
$DIMLIM
 70
     0
  9
$DIMTIH
 70
     1
  9
$DIMTOH
 70
     1
  9
$DIMSE1
 70
     0
  9
$DIMSE2
 70
     0
  9
$DIMTAD
 70
     0
  9
$DIMZIN
 70
     0
  9
$DIMBLK
  1

  9
$DIMASO
 70
     1
  9
$DIMSHO
 70
     1
  9
$DIMPOST
  1

  9
$DIMAPOST
  1

  9
$DIMALT
 70
     0
  9
$DIMALTD
 70
     2
  9
$DIMALTF
 40
25.4
  9
$DIMLFAC
 40
1.0
  9
$DIMTOFL
 70
     0
  9
$DIMTVP
 40
0.0
  9
$DIMTIX
 70
     0
  9
$DIMSOXD
 70
     0
  9
$DIMSAH
 70
     0
  9
$DIMBLK1
  1

  9
$DIMBLK2
  1

  9
$DIMSTYLE
  2
Standard
  9
$DIMCLRD
 70
     0
  9
$DIMCLRE
 70
     0
  9
$DIMCLRT
 70
     0
  9
$DIMTFAC
 40
1.0
  9
$DIMGAP
 40
0.09
  9
$DIMJUST
 70
     0
  9
$DIMSD1
 70
     0
  9
$DIMSD2
 70
     0
  9
$DIMTOLJ
 70
     1
  9
$DIMTZIN
 70
     0
  9
$DIMALTZ
 70
     0
  9
$DIMALTTZ
 70
     0
  9
$DIMUPT
 70
     0
  9
$DIMDEC
 70
     4
  9
$DIMTDEC
 70
     4
  9
$DIMALTU
 70
     2
  9
$DIMALTTD
 70
     2
  9
$DIMTXSTY
  7
Standard
  9
$DIMAUNIT
 70
     0
  9
$DIMADEC
 70
     0
  9
$DIMALTRND
 40
0.0
  9
$DIMAZIN
 70
     0
  9
$DIMDSEP
 70
    46
  9
$DIMATFIT
 70
     3
  9
$DIMFRAC
 70
     0
  9
$DIMLDRBLK
  1

  9
$DIMLUNIT
 70
     2
  9
$DIMLWD
 70
    -2
  9
$DIMLWE
 70
    -2
  9
$DIMTMOVE
 70
     0
  9
$LUNITS
 70
     2
  9
$LUPREC
 70
     2
  9
$SKETCHINC
 40
0.1
  9
$FILLETRAD
 40
0.5
  9
$AUNITS
 70
     0
  9
$AUPREC
 70
     0
  9
$MENU
  1
.
  9
$ELEVATION
 40
0.0
  9
$PELEVATION
 40
0.0
  9
$THICKNESS
 40
0.0
  9
$LIMCHECK
 70
     0
  9
$CHAMFERA
 40
0.5
  9
$CHAMFERB
 40
0.5
  9
$CHAMFERC
 40
1.0
  9
$CHAMFERD
 40
0.0
  9
$SKPOLY
 70
     0
  9
$TDCREATE
 40
2456092.368582997
  9
$TDUCREATE
 40
2456091.993582997
  9
$TDUPDATE
 40
2456092.368583009
  9
$TDUUPDATE
 40
2456091.993583009
  9
$TDINDWG
 40
0.0000000116
  9
$TDUSRTIMER
 40
0.0000000116
  9
$USRTIMER
 70
     1
  9
$ANGBASE
 50
0.0
  9
$ANGDIR
 70
     0
  9
$PDMODE
 70
     0
  9
$PDSIZE
 40
0.0
  9
$PLINEWID
 40
0.0
  9
$SPLFRAME
 70
     0
  9
$SPLINETYPE
 70
     6
  9
$SPLINESEGS
 70
     8
  9
$HANDSEED
  5
67D
  9
$SURFTAB1
 70
     6
  9
$SURFTAB2
 70
     6
  9
$SURFTYPE
 70
     6
  9
$SURFU
 70
     6
  9
$SURFV
 70
     6
  9
$UCSBASE
  2

  9
$UCSNAME
  2

  9
$UCSORG
 10
0.0
 20
0.0
 30
0.0
  9
$UCSXDIR
 10
1.0
 20
0.0
 30
0.0
  9
$UCSYDIR
 10
0.0
 20
1.0
 30
0.0
  9
$UCSORTHOREF
  2

  9
$UCSORTHOVIEW
 70
     0
  9
$UCSORGTOP
 10
0.0
 20
0.0
 30
0.0
  9
$UCSORGBOTTOM
 10
0.0
 20
0.0
 30
0.0
  9
$UCSORGLEFT
 10
0.0
 20
0.0
 30
0.0
  9
$UCSORGRIGHT
 10
0.0
 20
0.0
 30
0.0
  9
$UCSORGFRONT
 10
0.0
 20
0.0
 30
0.0
  9
$UCSORGBACK
 10
0.0
 20
0.0
 30
0.0
  9
$PUCSBASE
  2

  9
$PUCSNAME
  2

  9
$PUCSORG
 10
0.0
 20
0.0
 30
0.0
  9
$PUCSXDIR
 10
1.0
 20
0.0
 30
0.0
  9
$PUCSYDIR
 10
0.0
 20
1.0
 30
0.0
  9
$PUCSORTHOREF
  2

  9
$PUCSORTHOVIEW
 70
     0
  9
$PUCSORGTOP
 10
0.0
 20
0.0
 30
0.0
  9
$PUCSORGBOTTOM
 10
0.0
 20
0.0
 30
0.0
  9
$PUCSORGLEFT
 10
0.0
 20
0.0
 30
0.0
  9
$PUCSORGRIGHT
 10
0.0
 20
0.0
 30
0.0
  9
$PUCSORGFRONT
 10
0.0
 20
0.0
 30
0.0
  9
$PUCSORGBACK
 10
0.0
 20
0.0
 30
0.0
  9
$USERI1
 70
     0
  9
$USERI2
 70
     0
  9
$USERI3
 70
     0
  9
$USERI4
 70
     0
  9
$USERI5
 70
     0
  9
$USERR1
 40
0.0
  9
$USERR2
 40
0.0
  9
$USERR3
 40
0.0
  9
$USERR4
 40
0.0
  9
$USERR5
 40
0.0
  9
$WORLDVIEW
 70
     1
  9
$SHADEDGE
 70
     3
  9
$SHADEDIF
 70
    70
  9
$TILEMODE
 70
     1
  9
$MAXACTVP
 70
    64
  9
$PINSBASE
 10
0.0
 20
0.0
 30
0.0
  9
$PLIMCHECK
 70
     0
  9
$PEXTMIN
 10
-9.375
 20
-25.0
 30
0.0
  9
$PEXTMAX
 10
525.0
 20
371.25
 30
0.0
  9
$PLIMMIN
 10
-7.5
 20
-20.0
  9
$PLIMMAX
 10
420.0
 20
297.0
  9
$UNITMODE
 70
     0
  9
$VISRETAIN
 70
     1
  9
$PLINEGEN
 70
     0
  9
$PSLTSCALE
 70
     1
  9
$TREEDEPTH
 70
  3020
  9
$CMLSTYLE
  2
Standard
  9
$CMLJUST
 70
     0
  9
$CMLSCALE
 40
1.0
  9
$PROXYGRAPHICS
 70
     1
  9
$MEASUREMENT
 70
     0
  9
$CELWEIGHT
370
    -1
  9
$ENDCAPS
280
     0
  9
$JOINSTYLE
280
     0
  9
$LWDISPLAY
290
     1
  9
$INSUNITS
 70
     0
  9
$HYPERLINKBASE
  1

  9
$STYLESHEET
  1

  9
$XEDIT
290
     1
  9
$CEPSNTYPE
380
     0
  9
$PSTYLEMODE
290
     1
  9
$FINGERPRINTGUID
  2
{85D487F4-75F2-4FA4-B827-67957889380F}
  9
$VERSIONGUID
  2
{FAEB1C32-E019-11D5-929B-00C0DF256EC4}
  9
$EXTNAMES
290
     1
  9
$PSVPSCALE
 40
0.0
  9
$OLESTARTUP
290
     0
  0
ENDSEC
  0
SECTION
  2
CLASSES
  0
CLASS
  1
ACDBDICTIONARYWDFLT
  2
AcDbDictionaryWithDefault
  3
ObjectDBX Classes
 90
        0
280
     0
281
     0
  0
CLASS
  1
VISUALSTYLE
  2
AcDbVisualStyle
  3
ObjectDBX Classes
 90
     4095
280
     0
281
     0
  0
CLASS
  1
MATERIAL
  2
AcDbMaterial
  3
ObjectDBX Classes
 90
     1153
280
     0
281
     0
  0
CLASS
  1
RASTERVARIABLES
  2
AcDbRasterVariables
  3
ISM
 90
        0
280
     0
281
     0
  0
CLASS
  1
SCALE
  2
AcDbScale
  3
ObjectDBX Classes
 90
     1153
280
     0
281
     0
  0
CLASS
  1
DICTIONARYVAR
  2
AcDbDictionaryVar
  3
ObjectDBX Classes
 90
        0
280
     0
281
     0
  0
CLASS
  1
ACDBPLACEHOLDER
  2
AcDbPlaceHolder
  3
ObjectDBX Classes
 90
        0
280
     0
281
     0
  0
CLASS
  1
LAYOUT
  2
AcDbLayout
  3
ObjectDBX Classes
 90
        0
280
     0
281
     0
  0
ENDSEC
  0
SECTION
  2
TABLES
  0
TABLE
  2
VPORT
  5
8
330
0
100
AcDbSymbolTable
 70
     1
  0
VPORT
  5
29
330
8
100
AcDbSymbolTableRecord
100
AcDbViewportTableRecord
  2
*Active
 70
     0
 10
0.0
 20
0.0
 11
1.0
 21
1.0
 12
565.65
 22
772.6
 13
0.0
 23
0.0
 14
0.5
 24
0.5
 15
0.5
 25
0.5
 16
0.0
 26
0.0
 36
1.0
 17
0.0
 27
0.0
 37
0.0
 40
1622.46
 41
0.7243722495469842
 42
50.0
 43
0.0
 44
0.0
 50
0.0
 51
0.0
 71
     0
 72
 20000
 73
     1
 74
     3
 75
     0
 76
     0
 77
     0
 78
     0
281
     0
 65
     1
110
0.0
120
0.0
130
0.0
111
1.0
121
0.0
131
0.0
112
0.0
122
1.0
132
0.0
 79
     0
146
0.0
  0
ENDTAB
  0
TABLE
  2
LTYPE
  5
5
330
0
100
AcDbSymbolTable
 70
     4
  0
LTYPE
  5
14
330
5
100
AcDbSymbolTableRecord
100
AcDbLinetypeTableRecord
  2
ByBlock
 70
     0
  3

 72
    65
 73
     0
 40
0.0
  0
LTYPE
  5
15
330
5
100
AcDbSymbolTableRecord
100
AcDbLinetypeTableRecord
  2
ByLayer
 70
     0
  3

 72
    65
 73
     0
 40
0.0
  0
LTYPE
  5
16
330
5
100
AcDbSymbolTableRecord
100
AcDbLinetypeTableRecord
  2
Continuous
 70
     0
  3
Solid line
 72
    65
 73
     0
 40
0.0
  0
LTYPE
  5
41
330
5
100
AcDbSymbolTableRecord
100
AcDbLinetypeTableRecord
  2
ACAD_ISO02W100
 70
     0
  3
ISO dash __ __ __ __ __ __ __ __ __ __ __ __ __
 72
    65
 73
     2
 40
15.0
 49
12.0
 74
     0
 49
-3.0
 74
     0
  0
LTYPE
  5
42
330
5
100
AcDbSymbolTableRecord
100
AcDbLinetypeTableRecord
  2
ACAD_ISO08W100
 70
     0
  3
ISO long-dash short-dash ____ __ ____ __ ____ _
 72
    65
 73
     4
 40
36.0
 49
24.0
 74
     0
 49
-3.0
 74
     0
 49
6.0
 74
     0
 49
-3.0
 74
     0
  0
LTYPE
  5
43
330
5
100
AcDbSymbolTableRecord
100
AcDbLinetypeTableRecord
  2
点線A
 70
     0
  3

 72
    65
 73
     2
 40
2.0
 49
1.0
 74
     0
 49
-1.0
 74
     0
  0
ENDTAB
  0
TABLE
  2
LAYER
  5
2
330
0
100
AcDbSymbolTable
 70
    28
  0
LAYER
  5
10
330
2
100
AcDbSymbolTableRecord
100
AcDbLayerTableRecord
  2
0
 70
     0
 62
     7
  6
Continuous
370
    -3
390
F
  0
LAYER
  5
44
330
2
100
AcDbSymbolTableRecord
100
AcDbLayerTableRecord
  2
中心線
 70
     0
 62
     2
  6
ACAD_ISO08W100
370
    13
390
F
  0
LAYER
  5
45
330
2
100
AcDbSymbolTableRecord
100
AcDbLayerTableRecord
  2
硬質ウレタン
 70
     0
 62
    30
  6
Continuous
370
    50
390
F
  0
LAYER
  5
46
330
2
100
AcDbSymbolTableRecord
100
AcDbLayerTableRecord
  2
ケース
 70
     0
 62
     7
  6
Continuous
370
    35
390
F
  0
LAYER
  5
47
330
2
100
AcDbSymbolTableRecord
100
AcDbLayerTableRecord
  2
部品
 70
     0
 62
     6
  6
Continuous
370
    35
390
F
  0
LAYER
  5
48
330
2
100
AcDbSymbolTableRecord
100
AcDbLayerTableRecord
  2
シルク
 70
     0
 62
     2
  6
Continuous
370
    70
390
F
  0
LAYER
  5
49
330
2
100
AcDbSymbolTableRecord
100
AcDbLayerTableRecord
  2
パネル
 70
     0
 62
     7
  6
Continuous
370
    50
390
F
  0
LAYER
  5
4A
330
2
100
AcDbSymbolTableRecord
100
AcDbLayerTableRecord
  2
底板
 70
     0
 62
     7
  6
Continuous
370
    50
390
F
  0
LAYER
  5
4B
330
2
100
AcDbSymbolTableRecord
100
AcDbLayerTableRecord
  2
DC プラグ
 70
     0
 62
    33
  6
Continuous
370
    25
390
F
  0
LAYER
  5
4C
330
2
100
AcDbSymbolTableRecord
100
AcDbLayerTableRecord
  2
固定枠
 70
     0
 62
   181
  6
Continuous
370
    35
390
F
  0
LAYER
  5
4D
330
2
100
AcDbSymbolTableRecord
100
AcDbLayerTableRecord
  2
文字・寸法
 70
     0
 62
     1
  6
Continuous
370
    18
390
F
  0
LAYER
  5
4E
330
2
100
AcDbSymbolTableRecord
100
AcDbLayerTableRecord
  2
隠れ線
 70
     0
 62
     1
  6
ACAD_ISO02W100
370
    18
390
F
  0
LAYER
  5
4F
330
2
100
AcDbSymbolTableRecord
100
AcDbLayerTableRecord
  2
補助線
 70
     0
 62
     8
  6
Continuous
290
     0
370
    13
390
F
  0
LAYER
  5
50
330
2
100
AcDbSymbolTableRecord
100
AcDbLayerTableRecord
  2
図面枠
 70
     0
 62
     7
  6
Continuous
290
     0
370
    35
390
F
  0
LAYER
  5
51
330
2
100
AcDbSymbolTableRecord
100
AcDbLayerTableRecord
  2
太枠
 70
     0
 62
     7
  6
Continuous
370
    50
390
F
  0
LAYER
  5
52
330
2
100
AcDbSymbolTableRecord
100
AcDbLayerTableRecord
  2
細枠
 70
     0
 62
     7
  6
Continuous
370
    35
390
F
  0
LAYER
  5
53
330
2
100
AcDbSymbolTableRecord
100
AcDbLayerTableRecord
  2
受信機_底
 70
     0
 62
    33
  6
Continuous
370
    35
390
F
  0
LAYER
  5
54
330
2
100
AcDbSymbolTableRecord
100
AcDbLayerTableRecord
  2
受信機_上カバー
 70
     0
 62
     3
  6
Continuous
370
    35
390
F
  0
LAYER
  5
55
330
2
100
AcDbSymbolTableRecord
100
AcDbLayerTableRecord
  2
アクリル板
 70
     0
 62
   150
  6
Continuous
370
    35
390
F
  0
LAYER
  5
56
330
2
100
AcDbSymbolTableRecord
100
AcDbLayerTableRecord
  2
LED
 70
     0
 62
     7
  6
Continuous
370
    25
390
F
  0
LAYER
  5
57
330
2
100
AcDbSymbolTableRecord
100
AcDbLayerTableRecord
  2
電源SW
 70
     0
 62
     6
  6
Continuous
370
    35
390
F
  0
LAYER
  5
58
330
2
100
AcDbSymbolTableRecord
100
AcDbLayerTableRecord
  2
樹脂
 70
     0
 62
     7
  6
Continuous
370
    25
390
F
  0
LAYER
  5
59
330
2
100
AcDbSymbolTableRecord
100
AcDbLayerTableRecord
  2
ACアダプタ
 70
     0
 62
     3
  6
Continuous
370
    35
390
F
  0
LAYER
  5
5A
330
2
100
AcDbSymbolTableRecord
100
AcDbLayerTableRecord
  2
黒１
 70
     0
 62
     7
  6
Continuous
370
    25
390
F
  0
LAYER
  5
5B
330
2
100
AcDbSymbolTableRecord
100
AcDbLayerTableRecord
  2
テプラ
 70
     0
 62
     7
  6
Continuous
370
    13
390
F
  0
LAYER
  5
5C
330
2
100
AcDbSymbolTableRecord
100
AcDbLayerTableRecord
  2
文字
 70
     0
 62
     7
  6
Continuous
370
    13
390
F
  0
LAYER
  5
5D
330
2
100
AcDbSymbolTableRecord
100
AcDbLayerTableRecord
  2
罫線
 70
     0
 62
     7
  6
Continuous
370
    35
390
F
  0
LAYER
  5
5E
330
2
100
AcDbSymbolTableRecord
100
AcDbLayerTableRecord
  2
rcviewportframe
 70
     0
 62
    -7
  6
Continuous
370
    -3
390
F
  0
ENDTAB
  0
TABLE
  2
STYLE
  5
3
330
0
100
AcDbSymbolTable
 70
     7
  0
STYLE
  5
11
330
3
100
AcDbSymbolTableRecord
100
AcDbTextStyleTableRecord
  2
Standard
 70
     0
 40
0.0
 41
1.0
 50
0.0
 71
     0
 42
0.2
  3
txt.shx
  4
extfont
  0
STYLE
  5
5F
330
3
100
AcDbSymbolTableRecord
100
AcDbTextStyleTableRecord
  2
MS PGothic
 70
     0
 40
0.0
 41
1.0
 50
0.0
 71
     0
 42
0.2
  3
MS PGothic.ttf
  4

1001
ACAD
1000
ＭＳ Ｐゴシック
1071
    32818
  0
STYLE
  5
60
330
3
100
AcDbSymbolTableRecord
100
AcDbTextStyleTableRecord
  2
VERTICAL
 70
     4
 40
0.0
 41
1.0
 50
0.0
 71
     0
 42
0.2
  3
txt.shx
  4
extfont
  0
STYLE
  5
61
330
3
100
AcDbSymbolTableRecord
100
AcDbTextStyleTableRecord
  2
VERTICAL MS PGothic
 70
     0
 40
0.0
 41
1.0
 50
0.0
 71
     0
 42
0.2
  3
MS PGothic.ttf
  4

1001
ACAD
1000
@ＭＳ Ｐゴシック
1071
    32818
  0
STYLE
  5
300
330
3
100
AcDbSymbolTableRecord
100
AcDbTextStyleTableRecord
  2
HG丸ｺﾞｼｯｸM-PRO
 70
     0
 40
0.0
 41
1.0
 50
0.0
 71
     0
 42
0.2
  3
HGRSMP.TTF
  4
extfont
1001
ACAD
1000
HG丸ｺﾞｼｯｸM-PRO
1071
    32818
  0
STYLE
  5
341
330
3
100
AcDbSymbolTableRecord
100
AcDbTextStyleTableRecord
  2
MS Gothic
 70
     0
 40
0.0
 41
1.0
 50
0.0
 71
     0
 42
0.2
  3
MS Gothic.ttf
  4
extfont
1001
ACAD
1000
ＭＳ ゴシック
1071
    32817
  0
STYLE
  5
36B
330
3
100
AcDbSymbolTableRecord
100
AcDbTextStyleTableRecord
  2
MS Gothic B
 70
     0
 40
0.0
 41
1.0
 50
0.0
 71
     0
 42
0.2
  3
MS Gothic.ttf
  4
extfont
1001
ACAD
1000
ＭＳ ゴシック
1071
 33587249
  0
ENDTAB
  0
TABLE
  2
VIEW
  5
6
330
0
100
AcDbSymbolTable
 70
     0
  0
ENDTAB
  0
TABLE
  2
UCS
  5
7
330
0
100
AcDbSymbolTable
 70
     0
  0
ENDTAB
  0
TABLE
  2
APPID
  5
9
330
0
100
AcDbSymbolTable
 70
     4
  0
APPID
  5
12
330
9
100
AcDbSymbolTableRecord
100
AcDbRegAppTableRecord
  2
ACAD
 70
     0
  0
APPID
  5
3F
330
9
100
AcDbSymbolTableRecord
100
AcDbRegAppTableRecord
  2
RootPro CAD
 70
     0
  0
APPID
  5
655
330
9
100
AcDbSymbolTableRecord
100
AcDbRegAppTableRecord
  2
ACAD_DSTYLE_DIM_LINETYPE
 70
     0
  0
APPID
  5
656
330
9
100
AcDbSymbolTableRecord
100
AcDbRegAppTableRecord
  2
ACAD_DSTYLE_DIM_EXT1_LINETYPE
 70
     0
  0
ENDTAB
  0
TABLE
  2
DIMSTYLE
  5
A
330
0
100
AcDbSymbolTable
 70
     1
100
AcDbDimStyleTable
  0
DIMSTYLE
105
27
102
{ACAD_REACTORS
330
375
330
381
330
38B
330
395
330
39F
102
}
330
A
100
AcDbSymbolTableRecord
100
AcDbDimStyleTableRecord
  2
Standard
 70
     0
340
11
  0
ENDTAB
  0
TABLE
  2
BLOCK_RECORD
  5
1
330
0
100
AcDbSymbolTable
 70
     7
  0
BLOCK_RECORD
  5
1F
330
1
100
AcDbSymbolTableRecord
100
AcDbBlockTableRecord
  2
*Model_Space
340
22
  0
BLOCK_RECORD
  5
1B
330
1
100
AcDbSymbolTableRecord
100
AcDbBlockTableRecord
  2
*Paper_Space
340
1E
  0
BLOCK_RECORD
  5
36F
330
1
100
AcDbSymbolTableRecord
100
AcDbBlockTableRecord
  2
_OPEN
340
0
  0
BLOCK_RECORD
  5
376
330
1
100
AcDbSymbolTableRecord
100
AcDbBlockTableRecord
  2
*D2
340
0
  0
BLOCK_RECORD
  5
382
330
1
100
AcDbSymbolTableRecord
100
AcDbBlockTableRecord
  2
*D3
340
0
  0
BLOCK_RECORD
  5
38C
330
1
100
AcDbSymbolTableRecord
100
AcDbBlockTableRecord
  2
*D4
340
0
  0
BLOCK_RECORD
  5
396
330
1
100
AcDbSymbolTableRecord
100
AcDbBlockTableRecord
  2
*D5
340
0
  0
BLOCK_RECORD
  5
3A0
330
1
100
AcDbSymbolTableRecord
100
AcDbBlockTableRecord
  2
*D6
340
0
  0
ENDTAB
  0
ENDSEC
  0
SECTION
  2
BLOCKS
  0
BLOCK
  5
20
330
1F
100
AcDbEntity
  8
0
100
AcDbBlockBegin
  2
*Model_Space
 70
     0
 10
0.0
 20
0.0
 30
0.0
  3
*Model_Space
  1

  0
ENDBLK
  5
21
330
1F
100
AcDbEntity
  8
0
100
AcDbBlockEnd
  0
BLOCK
  5
1C
330
1B
100
AcDbEntity
 67
     1
  8
0
100
AcDbBlockBegin
  2
*Paper_Space
 70
     0
 10
0.0
 20
0.0
 30
0.0
  3
*Paper_Space
  1

  0
ENDBLK
  5
1D
330
1B
100
AcDbEntity
 67
     1
  8
0
100
AcDbBlockEnd
  0
BLOCK
  5
370
330
36F
100
AcDbEntity
  8
0
100
AcDbBlockBegin
  2
_OPEN
 70
     0
 10
0.0
 20
0.0
 30
0.0
  3
_OPEN
  1

  0
LINE
  5
372
330
36F
100
AcDbEntity
  8
0
  6
ByBlock
 62
     0
370
    -2
100
AcDbLine
 10
-1.0
 20
0.166667
 30
0.0
 11
0.0
 21
0.0
 31
0.0
  0
LINE
  5
373
330
36F
100
AcDbEntity
  8
0
  6
ByBlock
 62
     0
370
    -2
100
AcDbLine
 10
-1.0
 20
-0.166667
 30
0.0
 11
0.0
 21
0.0
 31
0.0
  0
LINE
  5
374
330
36F
100
AcDbEntity
  8
0
  6
ByBlock
 62
     0
370
    -2
100
AcDbLine
 10
0.0
 20
0.0
 30
0.0
 11
-1.0
 21
0.0
 31
0.0
  0
ENDBLK
  5
371
330
36F
100
AcDbEntity
  8
0
100
AcDbBlockEnd
  0
BLOCK
  5
37D
330
376
100
AcDbEntity
  8
0
100
AcDbBlockBegin
  2
*D2
 70
     1
 10
0.0
 20
0.0
 30
0.0
  3
*D2
  1

  0
MTEXT
  5
377
330
376
100
AcDbEntity
  8
文字・寸法
100
AcDbMText
 10
822.4012317819265
 20
922.9706129662804
 30
0.0
 40
10.3125
 41
20.9765625
 71
     7
 72
     1
  1
{\fＭＳ ゴシック|b0|i0;335}
  7
MS Gothic
 11
6.123233995736766E-17
 21
1.0
 31
0.0
 73
     1
 44
0.75
  0
LINE
  5
378
330
376
100
AcDbEntity
  8
文字・寸法
100
AcDbLine
 10
619.5
 20
1101.55
 30
0.0
 11
825.4012317819265
 21
1101.55
 31
0.0
  0
LINE
  5
379
330
376
100
AcDbEntity
  8
文字・寸法
100
AcDbLine
 10
712.0
 20
766.8912259325613
 30
0.0
 11
825.4012317819265
 21
766.8912259325613
 31
0.0
  0
LWPOLYLINE
  5
37A
330
376
100
AcDbEntity
  8
文字・寸法
  6
Continuous
100
AcDbPolyline
 90
        3
 70
     0
 43
0.0
 10
821.6512317819265
 20
1094.05
 10
822.9012317819265
 20
1101.55
 10
824.1512317819265
 20
1094.05
  0
LWPOLYLINE
  5
37B
330
376
100
AcDbEntity
  8
文字・寸法
  6
Continuous
100
AcDbPolyline
 90
        3
 70
     0
 43
0.0
 10
824.1512317819265
 20
774.3912259325612
 10
822.9012317819265
 20
766.8912259325612
 10
821.6512317819265
 20
774.3912259325612
  0
LINE
  5
37C
330
376
100
AcDbEntity
  8
文字・寸法
100
AcDbLine
 10
822.9012317819265
 20
1101.55
 30
0.0
 11
822.9012317819265
 21
766.8912259325613
 31
0.0
  0
ENDBLK
  5
37E
330
376
100
AcDbEntity
  8
0
100
AcDbBlockEnd
  0
BLOCK
  5
389
330
382
100
AcDbEntity
  8
0
100
AcDbBlockBegin
  2
*D3
 70
     1
 10
0.0
 20
0.0
 30
0.0
  3
*D3
  1

  0
MTEXT
  5
383
330
382
100
AcDbEntity
  8
文字・寸法
100
AcDbMText
 10
794.7012317819264
 20
919.2999999999996
 30
0.0
 40
10.3125
 41
21.26953125
 71
     7
 72
     1
  1
{\fＭＳ ゴシック|b0|i0;310}
  7
MS Gothic
 11
6.123233995736766E-17
 21
1.0
 31
0.0
 73
     1
 44
0.75
  0
LINE
  5
384
330
382
100
AcDbEntity
  8
文字・寸法
100
AcDbLine
 10
734.5
 20
1085.05
 30
0.0
 11
797.7012317819263
 21
1085.05
 31
0.0
  0
LINE
  5
385
330
382
100
AcDbEntity
  8
文字・寸法
100
AcDbLine
 10
734.5
 20
776.0499999999998
 30
0.0
 11
797.7012317819263
 21
776.0499999999998
 31
0.0
  0
LWPOLYLINE
  5
386
330
382
100
AcDbEntity
  8
文字・寸法
  6
Continuous
100
AcDbPolyline
 90
        3
 70
     0
 43
0.0
 10
793.9512317819263
 20
1077.55
 10
795.2012317819263
 20
1085.05
 10
796.4512317819263
 20
1077.55
  0
LWPOLYLINE
  5
387
330
382
100
AcDbEntity
  8
文字・寸法
  6
Continuous
100
AcDbPolyline
 90
        3
 70
     0
 43
0.0
 10
796.4512317819263
 20
783.5499999999997
 10
795.2012317819263
 20
776.0499999999997
 10
793.9512317819263
 20
783.5499999999997
  0
LINE
  5
388
330
382
100
AcDbEntity
  8
文字・寸法
100
AcDbLine
 10
795.2012317819263
 20
1085.05
 30
0.0
 11
795.2012317819263
 21
776.0499999999998
 31
0.0
  0
ENDBLK
  5
38A
330
382
100
AcDbEntity
  8
0
100
AcDbBlockEnd
  0
BLOCK
  5
393
330
38C
100
AcDbEntity
  8
0
100
AcDbBlockBegin
  2
*D4
 70
     1
 10
0.0
 20
0.0
 30
0.0
  3
*D4
  1

  0
MTEXT
  5
38D
330
38C
100
AcDbEntity
  8
文字・寸法
100
AcDbMText
 10
550.9239758104941
 20
1135.4
 30
0.0
 40
10.3125
 41
21.26953125
 71
     7
 72
     1
  1
{\fＭＳ ゴシック|b0|i0;390}
  7
MS Gothic
 73
     1
 44
0.75
  0
LINE
  5
38E
330
38C
100
AcDbEntity
  8
文字・寸法
100
AcDbLine
 10
368.3492056162077
 20
1196.595758389808
 30
0.0
 11
368.3492056162077
 21
1132.4
 31
0.0
  0
LINE
  5
38F
330
38C
100
AcDbEntity
  8
文字・寸法
100
AcDbLine
 10
755.9987460047805
 20
1200.734891926513
 30
0.0
 11
755.9987460047805
 21
1132.4
 31
0.0
  0
LWPOLYLINE
  5
390
330
38C
100
AcDbEntity
  8
文字・寸法
  6
Continuous
100
AcDbPolyline
 90
        3
 70
     0
 43
0.0
 10
375.8492056162077
 20
1133.65
 10
368.3492056162077
 20
1134.9
 10
375.8492056162077
 20
1136.15
  0
LWPOLYLINE
  5
391
330
38C
100
AcDbEntity
  8
文字・寸法
  6
Continuous
100
AcDbPolyline
 90
        3
 70
     0
 43
0.0
 10
748.4987460047805
 20
1136.15
 10
755.9987460047805
 20
1134.9
 10
748.4987460047805
 20
1133.65
  0
LINE
  5
392
330
38C
100
AcDbEntity
  8
文字・寸法
100
AcDbLine
 10
368.3492056162077
 20
1134.9
 30
0.0
 11
755.9987460047805
 21
1134.9
 31
0.0
  0
ENDBLK
  5
394
330
38C
100
AcDbEntity
  8
0
100
AcDbBlockEnd
  0
BLOCK
  5
39D
330
396
100
AcDbEntity
  8
0
100
AcDbBlockBegin
  2
*D5
 70
     1
 10
0.0
 20
0.0
 30
0.0
  3
*D5
  1

  0
MTEXT
  5
397
330
396
100
AcDbEntity
  8
文字・寸法
100
AcDbMText
 10
809.1499999999996
 20
1218.075
 30
0.0
 40
10.3125
 41
20.15625
 71
     7
 72
     1
  1
{\fＭＳ ゴシック|b0|i0;119}
  7
MS Gothic
 11
6.123233995736766E-17
 21
1.0
 31
0.0
 73
     1
 44
0.75
  0
LINE
  5
398
330
396
100
AcDbEntity
  8
文字・寸法
100
AcDbLine
 10
720.5
 20
1169.65
 30
0.0
 11
812.1499999999996
 21
1169.65
 31
0.0
  0
LINE
  5
399
330
396
100
AcDbEntity
  8
文字・寸法
100
AcDbLine
 10
792.0499999999997
 20
1289.0
 30
0.0
 11
812.1499999999996
 21
1289.0
 31
0.0
  0
LWPOLYLINE
  5
39A
330
396
100
AcDbEntity
  8
文字・寸法
  6
Continuous
100
AcDbPolyline
 90
        3
 70
     0
 43
0.0
 10
810.8999999999996
 20
1177.15
 10
809.6499999999996
 20
1169.65
 10
808.3999999999996
 20
1177.15
  0
LWPOLYLINE
  5
39B
330
396
100
AcDbEntity
  8
文字・寸法
  6
Continuous
100
AcDbPolyline
 90
        3
 70
     0
 43
0.0
 10
808.3999999999996
 20
1281.5
 10
809.6499999999996
 20
1289.0
 10
810.8999999999996
 20
1281.5
  0
LINE
  5
39C
330
396
100
AcDbEntity
  8
文字・寸法
100
AcDbLine
 10
809.6499999999996
 20
1169.65
 30
0.0
 11
809.6499999999996
 21
1289.0
 31
0.0
  0
ENDBLK
  5
39E
330
396
100
AcDbEntity
  8
0
100
AcDbBlockEnd
  0
BLOCK
  5
3A7
330
3A0
100
AcDbEntity
  8
0
100
AcDbBlockBegin
  2
*D6
 70
     1
 10
0.0
 20
0.0
 30
0.0
  3
*D6
  1

  0
MTEXT
  5
3A1
330
3A0
100
AcDbEntity
  8
文字・寸法
100
AcDbMText
 10
788.5499999999997
 20
1222.75
 30
0.0
 40
10.3125
 41
20.44921875
 71
     7
 72
     1
  1
{\fＭＳ ゴシック|b0|i0;110}
  7
MS Gothic
 11
6.123233995736766E-17
 21
1.0
 31
0.0
 73
     1
 44
0.75
  0
LINE
  5
3A2
330
3A0
100
AcDbEntity
  8
文字・寸法
100
AcDbLine
 10
734.5
 20
1289.0
 30
0.0
 11
791.5499999999997
 21
1289.0
 31
0.0
  0
LINE
  5
3A3
330
3A0
100
AcDbEntity
  8
文字・寸法
100
AcDbLine
 10
734.5
 20
1179.0
 30
0.0
 11
791.5499999999997
 21
1179.0
 31
0.0
  0
LWPOLYLINE
  5
3A4
330
3A0
100
AcDbEntity
  8
文字・寸法
  6
Continuous
100
AcDbPolyline
 90
        3
 70
     0
 43
0.0
 10
787.7999999999997
 20
1281.5
 10
789.0499999999997
 20
1289.0
 10
790.2999999999997
 20
1281.5
  0
LWPOLYLINE
  5
3A5
330
3A0
100
AcDbEntity
  8
文字・寸法
  6
Continuous
100
AcDbPolyline
 90
        3
 70
     0
 43
0.0
 10
790.2999999999997
 20
1186.5
 10
789.0499999999997
 20
1179.0
 10
787.7999999999997
 20
1186.5
  0
LINE
  5
3A6
330
3A0
100
AcDbEntity
  8
文字・寸法
100
AcDbLine
 10
789.0499999999997
 20
1289.0
 30
0.0
 11
789.0499999999997
 21
1179.0
 31
0.0
  0
ENDBLK
  5
3A8
330
3A0
100
AcDbEntity
  8
0
100
AcDbBlockEnd
  0
ENDSEC
  0
SECTION
  2
ENTITIES
  0
LINE
  5
62
330
1F
100
AcDbEntity
  8
ケース
100
AcDbLine
 10
419.0
 20
1239.0
 30
0.0
 11
368.0
 21
1239.0
 31
0.0
  0
LINE
  5
63
330
1F
100
AcDbEntity
  8
ケース
100
AcDbLine
 10
422.0
 20
1239.0
 30
0.0
 11
442.0
 21
1239.0
 31
0.0
  0
LINE
  5
64
330
1F
100
AcDbEntity
  8
ケース
100
AcDbLine
 10
442.0
 20
1239.0
 30
0.0
 11
422.0
 21
1239.0
 31
0.0
  0
LINE
  5
65
330
1F
100
AcDbEntity
  8
ケース
100
AcDbLine
 10
705.0
 20
1239.0
 30
0.0
 11
756.0
 21
1239.0
 31
0.0
  0
ARC
  5
66
330
1F
100
AcDbEntity
  8
ケース
100
AcDbCircle
 10
390.0
 20
1267.0
 30
0.0
 40
22.0
100
AcDbArc
 50
90.0
 51
180.0
  0
ARC
  5
67
330
1F
100
AcDbEntity
  8
ケース
100
AcDbCircle
 10
734.0
 20
1267.0
 30
0.0
 40
22.0
100
AcDbArc
 50
0.0
 51
90.0
  0
ARC
  5
68
330
1F
100
AcDbEntity
  8
ケース
100
AcDbCircle
 10
734.0
 20
1201.0
 30
0.0
 40
22.0
100
AcDbArc
 50
270.0
 51
0.0
  0
ARC
  5
69
330
1F
100
AcDbEntity
  8
ケース
100
AcDbCircle
 10
390.0
 20
798.05
 30
0.0
 40
22.0
100
AcDbArc
 50
180.0
 51
270.0
  0
LINE
  5
6A
330
1F
100
AcDbEntity
  8
ケース
100
AcDbLine
 10
445.0
 20
1239.0
 30
0.0
 11
679.0
 21
1239.0
 31
0.0
  0
LINE
  5
6B
330
1F
100
AcDbEntity
  8
ケース
100
AcDbLine
 10
679.0
 20
1239.0
 30
0.0
 11
445.0
 21
1239.0
 31
0.0
  0
ARC
  5
6C
330
1F
100
AcDbEntity
  8
ケース
100
AcDbCircle
 10
734.0
 20
1063.05
 30
0.0
 40
22.0
100
AcDbArc
 50
0.0
 51
90.0
  0
ARC
  5
6D
330
1F
100
AcDbEntity
  8
ケース
100
AcDbCircle
 10
390.0
 20
1201.0
 30
0.0
 40
22.0
100
AcDbArc
 50
180.0
 51
270.0
  0
LINE
  5
6E
330
1F
100
AcDbEntity
  8
ケース
100
AcDbLine
 10
368.0
 20
1239.0
 30
0.0
 11
419.0
 21
1239.0
 31
0.0
  0
ARC
  5
6F
330
1F
100
AcDbEntity
  8
ケース
100
AcDbCircle
 10
734.0
 20
798.0499999999998
 30
0.0
 40
22.0
100
AcDbArc
 50
270.0
 51
0.0
  0
LINE
  5
70
330
1F
100
AcDbEntity
  8
ケース
100
AcDbLine
 10
756.0
 20
1239.0
 30
0.0
 11
705.0
 21
1239.0
 31
0.0
  0
LINE
  5
71
330
1F
100
AcDbEntity
  8
ケース
100
AcDbLine
 10
682.0
 20
1239.0
 30
0.0
 11
702.0
 21
1239.0
 31
0.0
  0
LINE
  5
72
330
1F
100
AcDbEntity
  8
ケース
100
AcDbLine
 10
702.0
 20
1239.0
 30
0.0
 11
682.0
 21
1239.0
 31
0.0
  0
ARC
  5
73
330
1F
100
AcDbEntity
  8
ケース
100
AcDbCircle
 10
390.0
 20
1063.05
 30
0.0
 40
22.0
100
AcDbArc
 50
90.0
 51
180.0
  0
LINE
  5
74
330
1F
100
AcDbEntity
  8
ケース
370
    50
100
AcDbLine
 10
400.5999999999999
 20
1289.0
 30
0.0
 11
400.5999999999999
 21
1264.2
 31
0.0
  0
LINE
  5
75
330
1F
100
AcDbEntity
  8
ケース
370
    50
100
AcDbLine
 10
395.5999999999999
 20
1259.2
 30
0.0
 11
368.0
 21
1259.2
 31
0.0
  0
LINE
  5
76
330
1F
100
AcDbEntity
  8
ケース
370
    50
100
AcDbLine
 10
368.0
 20
1253.0
 30
0.0
 11
417.1418070123309
 21
1253.0
 31
0.0
  0
LINE
  5
77
330
1F
100
AcDbEntity
  8
ケース
370
    50
100
AcDbLine
 10
446.7477270848676
 20
1253.0
 30
0.0
 11
677.1418070123309
 21
1253.0
 31
0.0
  0
LINE
  5
78
330
1F
100
AcDbEntity
  8
ケース
370
    50
100
AcDbLine
 10
706.7477270848676
 20
1253.0
 30
0.0
 11
756.0
 21
1253.0
 31
0.0
  0
LINE
  5
79
330
1F
100
AcDbEntity
  8
ケース
370
    50
100
AcDbLine
 10
723.4000000000001
 20
1289.0
 30
0.0
 11
723.4000000000001
 21
1264.2
 31
0.0
  0
LINE
  5
7A
330
1F
100
AcDbEntity
  8
ケース
370
    50
100
AcDbLine
 10
728.4000000000001
 20
1259.2
 30
0.0
 11
756.0
 21
1259.2
 31
0.0
  0
LINE
  5
7B
330
1F
100
AcDbEntity
  8
ケース
370
    50
100
AcDbLine
 10
400.5999999999999
 20
1266.65
 30
0.0
 11
723.4000000000001
 21
1266.65
 31
0.0
  0
LINE
  5
7C
330
1F
100
AcDbEntity
  8
ケース
370
    50
100
AcDbLine
 10
400.5999999999999
 20
1253.0
 30
0.0
 11
400.5999999999999
 21
1239.0
 31
0.0
  0
LINE
  5
7D
330
1F
100
AcDbEntity
  8
ケース
370
    50
100
AcDbLine
 10
400.5999999999999
 20
1239.0
 30
0.0
 11
400.5999999999999
 21
1225.0
 31
0.0
  0
LINE
  5
7E
330
1F
100
AcDbEntity
  8
ケース
370
    50
100
AcDbLine
 10
723.4000000000001
 20
1253.0
 30
0.0
 11
723.4000000000001
 21
1239.0
 31
0.0
  0
LINE
  5
7F
330
1F
100
AcDbEntity
  8
ケース
370
    50
100
AcDbLine
 10
723.4000000000001
 20
1239.0
 30
0.0
 11
723.4000000000001
 21
1225.0
 31
0.0
  0
LINE
  5
80
330
1F
100
AcDbEntity
  8
ケース
370
    50
100
AcDbLine
 10
400.5999999999999
 20
1203.8
 30
0.0
 11
400.5999999999999
 21
1179.0
 31
0.0
  0
LINE
  5
81
330
1F
100
AcDbEntity
  8
ケース
370
    50
100
AcDbLine
 10
395.5999999999999
 20
1208.8
 30
0.0
 11
368.0
 21
1208.8
 31
0.0
  0
LINE
  5
82
330
1F
100
AcDbEntity
  8
ケース
370
    50
100
AcDbLine
 10
723.4000000000001
 20
1203.8
 30
0.0
 11
723.4000000000001
 21
1179.0
 31
0.0
  0
LINE
  5
83
330
1F
100
AcDbEntity
  8
ケース
370
    50
100
AcDbLine
 10
728.4000000000001
 20
1208.8
 30
0.0
 11
756.0
 21
1208.8
 31
0.0
  0
LINE
  5
84
330
1F
100
AcDbEntity
  8
ケース
370
    50
100
AcDbLine
 10
368.0
 20
1225.0
 30
0.0
 11
416.0
 21
1225.0
 31
0.0
  0
LINE
  5
85
330
1F
100
AcDbEntity
  8
ケース
370
    50
100
AcDbLine
 10
400.5999999999999
 20
1199.5
 30
0.0
 11
427.6817412345417
 21
1199.5
 31
0.0
  0
LINE
  5
86
330
1F
100
AcDbEntity
  8
ケース
370
    50
100
AcDbLine
 10
448.0
 20
1225.0
 30
0.0
 11
498.6201550387595
 21
1225.0
 31
0.0
  0
LINE
  5
87
330
1F
100
AcDbEntity
  8
ケース
370
    50
100
AcDbLine
 10
436.3182587654583
 20
1199.5
 30
0.0
 11
502.5736434108526
 21
1199.5
 31
0.0
  0
LINE
  5
88
330
1F
100
AcDbEntity
  8
ケース
370
    50
100
AcDbLine
 10
516.7409033905806
 20
1199.5
 30
0.0
 11
607.2590966094185
 21
1199.5
 31
0.0
  0
LINE
  5
89
330
1F
100
AcDbEntity
  8
ケース
370
    50
100
AcDbLine
 10
512.7874150184875
 20
1225.0
 30
0.0
 11
611.2125849815116
 21
1225.0
 31
0.0
  0
LINE
  5
8A
330
1F
100
AcDbEntity
  8
ケース
370
    50
100
AcDbLine
 10
621.426356589147
 20
1199.5
 30
0.0
 11
687.6817412345417
 21
1199.5
 31
0.0
  0
LINE
  5
8B
330
1F
100
AcDbEntity
  8
ケース
370
    50
100
AcDbLine
 10
696.3182587654583
 20
1199.5
 30
0.0
 11
723.4000000000001
 21
1199.5
 31
0.0
  0
LINE
  5
8C
330
1F
100
AcDbEntity
  8
ケース
370
    50
100
AcDbLine
 10
625.3798449612405
 20
1225.0
 30
0.0
 11
676.0
 21
1225.0
 31
0.0
  0
LINE
  5
8D
330
1F
100
AcDbEntity
  8
ケース
370
    50
100
AcDbLine
 10
708.0
 20
1225.0
 30
0.0
 11
756.0
 21
1225.0
 31
0.0
  0
ARC
  5
8E
330
1F
100
AcDbEntity
  8
ケース
370
    50
100
AcDbCircle
 10
395.5999999999999
 20
1264.2
 30
0.0
 40
5.0
100
AcDbArc
 50
270.0
 51
0.0
  0
ARC
  5
8F
330
1F
100
AcDbEntity
  8
ケース
370
    50
100
AcDbCircle
 10
395.5999999999999
 20
1203.8
 30
0.0
 40
5.0
100
AcDbArc
 50
0.0
 51
90.0
  0
ARC
  5
90
330
1F
100
AcDbEntity
  8
ケース
370
    50
100
AcDbCircle
 10
728.4000000000001
 20
1264.2
 30
0.0
 40
5.0
100
AcDbArc
 50
180.0
 51
270.0
  0
ARC
  5
91
330
1F
100
AcDbEntity
  8
ケース
370
    50
100
AcDbCircle
 10
728.4000000000001
 20
1203.8
 30
0.0
 40
5.0
100
AcDbArc
 50
90.0
 51
180.0
  0
LINE
  5
92
330
1F
100
AcDbEntity
  8
ケース
100
AcDbLine
 10
734.0
 20
1289.0
 30
0.0
 11
723.4000000000001
 21
1289.0
 31
0.0
  0
LINE
  5
93
330
1F
100
AcDbEntity
  8
ケース
100
AcDbLine
 10
400.5999999999999
 20
1289.0
 30
0.0
 11
390.0
 21
1289.0
 31
0.0
  0
LINE
  5
94
330
1F
100
AcDbEntity
  8
ケース
100
AcDbLine
 10
400.5999999999999
 20
1288.35
 30
0.0
 11
723.4000000000001
 21
1288.35
 31
0.0
  0
LINE
  5
95
330
1F
100
AcDbEntity
  8
ケース
100
AcDbLine
 10
390.0
 20
1179.0
 30
0.0
 11
401.0
 21
1179.0
 31
0.0
  0
LINE
  5
96
330
1F
100
AcDbEntity
  8
ケース
100
AcDbLine
 10
723.0
 20
1179.0
 30
0.0
 11
734.0
 21
1179.0
 31
0.0
  0
LINE
  5
97
330
1F
100
AcDbEntity
  8
ケース
100
AcDbLine
 10
400.5999999999999
 20
1179.65
 30
0.0
 11
505.6511627906971
 21
1179.65
 31
0.0
  0
LINE
  5
98
330
1F
100
AcDbEntity
  8
ケース
100
AcDbLine
 10
618.348837209302
 20
1179.65
 30
0.0
 11
723.4000000000001
 21
1179.65
 31
0.0
  0
LINE
  5
99
330
1F
100
AcDbEntity
  8
ケース
100
AcDbLine
 10
368.0
 20
1267.0
 30
0.0
 11
368.0
 21
1259.2
 31
0.0
  0
LINE
  5
9A
330
1F
100
AcDbEntity
  8
ケース
100
AcDbLine
 10
368.0
 20
1253.0
 30
0.0
 11
368.0
 21
1239.0
 31
0.0
  0
LINE
  5
9B
330
1F
100
AcDbEntity
  8
ケース
100
AcDbLine
 10
368.0
 20
1239.0
 30
0.0
 11
368.0
 21
1225.0
 31
0.0
  0
LINE
  5
9C
330
1F
100
AcDbEntity
  8
ケース
100
AcDbLine
 10
368.0
 20
1209.0
 30
0.0
 11
368.0
 21
1201.0
 31
0.0
  0
LINE
  5
9D
330
1F
100
AcDbEntity
  8
ケース
100
AcDbLine
 10
368.5999999999999
 20
1259.2
 30
0.0
 11
368.5999999999999
 21
1253.0
 31
0.0
  0
LINE
  5
9E
330
1F
100
AcDbEntity
  8
ケース
100
AcDbLine
 10
368.5999999999999
 20
1225.0
 30
0.0
 11
368.5999999999999
 21
1208.8
 31
0.0
  0
LINE
  5
9F
330
1F
100
AcDbEntity
  8
ケース
100
AcDbLine
 10
756.0
 20
1239.0
 30
0.0
 11
756.0
 21
1253.0
 31
0.0
  0
LINE
  5
A0
330
1F
100
AcDbEntity
  8
ケース
100
AcDbLine
 10
756.0
 20
1259.2
 30
0.0
 11
756.0
 21
1267.0
 31
0.0
  0
LINE
  5
A1
330
1F
100
AcDbEntity
  8
ケース
100
AcDbLine
 10
756.0
 20
1201.0
 30
0.0
 11
756.0
 21
1209.0
 31
0.0
  0
LINE
  5
A2
330
1F
100
AcDbEntity
  8
ケース
100
AcDbLine
 10
756.0
 20
1225.0
 30
0.0
 11
756.0
 21
1239.0
 31
0.0
  0
LINE
  5
A3
330
1F
100
AcDbEntity
  8
ケース
100
AcDbLine
 10
755.4899999999998
 20
1259.2
 30
0.0
 11
755.4899999999998
 21
1253.0
 31
0.0
  0
LINE
  5
A4
330
1F
100
AcDbEntity
  8
ケース
100
AcDbLine
 10
755.2800000000002
 20
1225.0
 30
0.0
 11
755.2800000000002
 21
1208.8
 31
0.0
  0
LINE
  5
A5
330
1F
100
AcDbEntity
  8
ケース
370
    50
100
AcDbLine
 10
396.5
 20
1052.79
 30
0.0
 11
368.0
 21
1052.79
 31
0.0
  0
LINE
  5
A6
330
1F
100
AcDbEntity
  8
ケース
370
    50
100
AcDbLine
 10
401.5
 20
1085.05
 30
0.0
 11
401.5
 21
1057.79
 31
0.0
  0
ARC
  5
A7
330
1F
100
AcDbEntity
  8
ケース
370
    50
100
AcDbCircle
 10
396.5
 20
1057.79
 30
0.0
 40
5.0
100
AcDbArc
 50
270.0
 51
0.0
  0
LINE
  5
A8
330
1F
100
AcDbEntity
  8
ケース
370
    50
100
AcDbLine
 10
727.5
 20
1052.79
 30
0.0
 11
756.0
 21
1052.79
 31
0.0
  0
LINE
  5
A9
330
1F
100
AcDbEntity
  8
ケース
370
    50
100
AcDbLine
 10
722.5
 20
1085.05
 30
0.0
 11
722.5
 21
1057.79
 31
0.0
  0
ARC
  5
AA
330
1F
100
AcDbEntity
  8
ケース
370
    50
100
AcDbCircle
 10
727.5
 20
1057.79
 30
0.0
 40
5.0
100
AcDbArc
 50
180.0
 51
270.0
  0
LINE
  5
AB
330
1F
100
AcDbEntity
  8
ケース
370
    50
100
AcDbLine
 10
396.5
 20
808.31
 30
0.0
 11
368.0
 21
808.31
 31
0.0
  0
LINE
  5
AC
330
1F
100
AcDbEntity
  8
ケース
370
    50
100
AcDbLine
 10
401.5
 20
776.05
 30
0.0
 11
401.5
 21
803.31
 31
0.0
  0
ARC
  5
AD
330
1F
100
AcDbEntity
  8
ケース
370
    50
100
AcDbCircle
 10
396.5
 20
803.31
 30
0.0
 40
5.0
100
AcDbArc
 50
0.0
 51
90.0
  0
LINE
  5
AE
330
1F
100
AcDbEntity
  8
ケース
370
    50
100
AcDbLine
 10
727.3286429633458
 20
809.1769892368551
 30
0.0
 11
755.8282514982202
 21
809.3263658043193
 31
0.0
  0
LINE
  5
AF
330
1F
100
AcDbEntity
  8
ケース
370
    50
100
AcDbLine
 10
722.4977954332412
 20
776.8912259325613
 30
0.0
 11
722.3549180567825
 21
804.1508514996027
 31
0.0
  0
ARC
  5
B0
330
1F
100
AcDbEntity
  8
ケース
370
    50
100
AcDbCircle
 10
727.3548493786902
 20
804.1770579149473
 30
0.0
 40
5.0
100
AcDbArc
 50
90.30030477404087
 51
180.3003047740409
  0
LINE
  5
B1
330
1F
100
AcDbEntity
  8
ケース
100
AcDbLine
 10
401.5
 20
1061.6
 30
0.0
 11
722.5
 21
1061.6
 31
0.0
  0
LINE
  5
B2
330
1F
100
AcDbEntity
  8
ケース
100
AcDbLine
 10
401.5
 20
799.7
 30
0.0
 11
722.5
 21
799.7
 31
0.0
  0
LINE
  5
B3
330
1F
100
AcDbEntity
  8
ケース
100
AcDbLine
 10
391.9000000000001
 20
1052.79
 30
0.0
 11
391.9000000000001
 21
808.31
 31
0.0
  0
LINE
  5
B4
330
1F
100
AcDbEntity
  8
ケース
100
AcDbLine
 10
734.4535450970643
 20
809.2143333787211
 30
0.0
 11
734.4535450970643
 21
1052.79
 31
0.0
  0
CIRCLE
  5
B5
330
1F
100
AcDbEntity
  8
ケース
370
    50
100
AcDbCircle
 10
392.4000000000001
 20
1267.4
 30
0.0
 40
5.0
  0
LINE
  5
B6
330
1F
100
AcDbEntity
  8
ケース
370
    50
100
AcDbLine
 10
393.5
 20
1259.2
 30
0.0
 11
393.5
 21
1253.0
 31
0.0
  0
LINE
  5
B7
330
1F
100
AcDbEntity
  8
ケース
370
    50
100
AcDbLine
 10
393.5
 20
1225.0
 30
0.0
 11
393.5
 21
1208.8
 31
0.0
  0
LINE
  5
B8
330
1F
100
AcDbEntity
  8
ケース
370
    50
100
AcDbLine
 10
731.0999999999999
 20
1259.2
 30
0.0
 11
731.0999999999999
 21
1253.0
 31
0.0
  0
LINE
  5
B9
330
1F
100
AcDbEntity
  8
ケース
370
    50
100
AcDbLine
 10
731.0999999999999
 20
1225.0
 30
0.0
 11
731.0999999999999
 21
1208.8
 31
0.0
  0
CIRCLE
  5
BA
330
1F
100
AcDbEntity
  8
ケース
370
    50
100
AcDbCircle
 10
392.4000000000001
 20
1199.2
 30
0.0
 40
5.0
  0
CIRCLE
  5
BB
330
1F
100
AcDbEntity
  8
ケース
370
    50
100
AcDbCircle
 10
731.5999999999999
 20
1267.0
 30
0.0
 40
5.0
  0
CIRCLE
  5
BC
330
1F
100
AcDbEntity
  8
ケース
370
    50
100
AcDbCircle
 10
731.5999999999999
 20
1200.5
 30
0.0
 40
5.0
  0
CIRCLE
  5
BD
330
1F
100
AcDbEntity
  8
ケース
370
    50
100
AcDbCircle
 10
731.5999999999999
 20
1246.1
 30
0.0
 40
5.0
  0
CIRCLE
  5
BE
330
1F
100
AcDbEntity
  8
ケース
370
    50
100
AcDbCircle
 10
731.5999999999999
 20
1232.0
 30
0.0
 40
5.0
  0
CIRCLE
  5
BF
330
1F
100
AcDbEntity
  8
ケース
370
    50
100
AcDbCircle
 10
392.4000000000001
 20
1246.1
 30
0.0
 40
5.0
  0
CIRCLE
  5
C0
330
1F
100
AcDbEntity
  8
ケース
370
    50
100
AcDbCircle
 10
392.4000000000001
 20
1232.0
 30
0.0
 40
5.0
  0
CIRCLE
  5
C1
330
1F
100
AcDbEntity
  8
ケース
370
    50
100
AcDbCircle
 10
392.4000000000001
 20
1061.6
 30
0.0
 40
5.0
  0
CIRCLE
  5
C2
330
1F
100
AcDbEntity
  8
ケース
370
    50
100
AcDbCircle
 10
392.4000000000001
 20
799.7
 30
0.0
 40
5.0
  0
CIRCLE
  5
C3
330
1F
100
AcDbEntity
  8
ケース
370
    50
100
AcDbCircle
 10
734.0
 20
799.7
 30
0.0
 40
5.0
  0
CIRCLE
  5
C4
330
1F
100
AcDbEntity
  8
ケース
370
    50
100
AcDbCircle
 10
734.5900000000001
 20
1061.6
 30
0.0
 40
5.0
  0
LINE
  5
C5
330
1F
100
AcDbEntity
  8
ケース
100
AcDbLine
 10
368.0
 20
1063.05
 30
0.0
 11
368.0
 21
1052.79
 31
0.0
  0
LINE
  5
C6
330
1F
100
AcDbEntity
  8
ケース
100
AcDbLine
 10
368.0
 20
808.31
 30
0.0
 11
368.0
 21
798.05
 31
0.0
  0
LINE
  5
C7
330
1F
100
AcDbEntity
  8
ケース
100
AcDbLine
 10
368.5500000000002
 20
1052.79
 30
0.0
 11
368.5500000000002
 21
808.31
 31
0.0
  0
LINE
  5
C8
330
1F
100
AcDbEntity
  8
ケース
100
AcDbLine
 10
390.0
 20
776.05
 30
0.0
 11
401.5
 21
776.05
 31
0.0
  0
LINE
  5
C9
330
1F
100
AcDbEntity
  8
ケース
100
AcDbLine
 10
756.0
 20
1052.79
 30
0.0
 11
756.0
 21
1063.05
 31
0.0
  0
LINE
  5
CA
330
1F
100
AcDbEntity
  8
ケース
100
AcDbLine
 10
734.0
 20
1085.05
 30
0.0
 11
722.5
 21
1085.05
 31
0.0
  0
LINE
  5
CB
330
1F
100
AcDbEntity
  8
ケース
100
AcDbLine
 10
401.5
 20
1085.05
 30
0.0
 11
390.0
 21
1085.05
 31
0.0
  0
LINE
  5
CC
330
1F
100
AcDbEntity
  8
ケース
100
AcDbLine
 10
401.5
 20
1084.28
 30
0.0
 11
722.5
 21
1084.28
 31
0.0
  0
LINE
  5
CD
330
1F
100
AcDbEntity
  8
ケース
100
AcDbLine
 10
755.29
 20
1052.79
 30
0.0
 11
755.29
 21
809.3229721271682
 31
0.0
  0
LINE
  5
CE
330
1F
100
AcDbEntity
  8
ケース
100
AcDbLine
 10
756.0
 20
798.0499999999998
 30
0.0
 11
756.0
 21
809.3263658043193
 31
0.0
  0
LINE
  5
CF
330
1F
100
AcDbEntity
  8
ケース
100
AcDbLine
 10
734.5
 20
776.0499999999998
 30
0.0
 11
722.4977954332412
 21
776.0499999999998
 31
0.0
  0
LINE
  5
D0
330
1F
100
AcDbEntity
  8
ケース
100
AcDbLine
 10
722.4977954332412
 20
776.8912259325613
 30
0.0
 11
401.5
 21
776.8912259325613
 31
0.0
  0
LINE
  5
D1
330
1F
100
AcDbEntity
  8
ケース
370
    25
100
AcDbLine
 10
401.5
 20
804.7
 30
0.0
 11
722.5
 21
804.7
 31
0.0
  0
LINE
  5
D2
330
1F
100
AcDbEntity
  8
ケース
370
    25
100
AcDbLine
 10
391.9000000000001
 20
839.7
 30
0.0
 11
734.4535450970643
 21
839.7
 31
0.0
  0
LINE
  5
D3
330
1F
100
AcDbEntity
  8
ケース
370
    25
100
AcDbLine
 10
391.9000000000001
 20
844.7
 30
0.0
 11
734.4535450970643
 21
844.7
 31
0.0
  0
LINE
  5
D4
330
1F
100
AcDbEntity
  8
ケース
370
    25
100
AcDbLine
 10
391.9000000000001
 20
849.7
 30
0.0
 11
734.4535450970643
 21
849.7
 31
0.0
  0
LINE
  5
D5
330
1F
100
AcDbEntity
  8
ケース
370
    25
100
AcDbLine
 10
391.9000000000001
 20
854.7
 30
0.0
 11
734.4535450970643
 21
854.7
 31
0.0
  0
LINE
  5
D6
330
1F
100
AcDbEntity
  8
ケース
370
    25
100
AcDbLine
 10
391.9000000000001
 20
859.7
 30
0.0
 11
734.4535450970643
 21
859.7
 31
0.0
  0
LINE
  5
D7
330
1F
100
AcDbEntity
  8
ケース
370
    25
100
AcDbLine
 10
391.9000000000001
 20
899.7
 30
0.0
 11
734.4535450970643
 21
899.7
 31
0.0
  0
LINE
  5
D8
330
1F
100
AcDbEntity
  8
ケース
370
    25
100
AcDbLine
 10
391.9000000000001
 20
904.7
 30
0.0
 11
734.4535450970643
 21
904.7
 31
0.0
  0
LINE
  5
D9
330
1F
100
AcDbEntity
  8
ケース
370
    25
100
AcDbLine
 10
391.9000000000001
 20
864.7
 30
0.0
 11
734.4535450970643
 21
864.7
 31
0.0
  0
LINE
  5
DA
330
1F
100
AcDbEntity
  8
ケース
370
    25
100
AcDbLine
 10
391.9000000000001
 20
869.7
 30
0.0
 11
734.4535450970643
 21
869.7
 31
0.0
  0
LINE
  5
DB
330
1F
100
AcDbEntity
  8
ケース
370
    25
100
AcDbLine
 10
391.9000000000001
 20
879.7
 30
0.0
 11
734.4535450970643
 21
879.7
 31
0.0
  0
LINE
  5
DC
330
1F
100
AcDbEntity
  8
ケース
370
    25
100
AcDbLine
 10
391.9000000000001
 20
874.7
 30
0.0
 11
734.4535450970643
 21
874.7
 31
0.0
  0
LINE
  5
DD
330
1F
100
AcDbEntity
  8
ケース
370
    25
100
AcDbLine
 10
391.9000000000001
 20
884.7
 30
0.0
 11
734.4535450970643
 21
884.7
 31
0.0
  0
LINE
  5
DE
330
1F
100
AcDbEntity
  8
ケース
370
    25
100
AcDbLine
 10
391.9000000000001
 20
889.7
 30
0.0
 11
734.4535450970643
 21
889.7
 31
0.0
  0
LINE
  5
DF
330
1F
100
AcDbEntity
  8
ケース
370
    25
100
AcDbLine
 10
391.9000000000001
 20
894.7
 30
0.0
 11
734.4535450970643
 21
894.7
 31
0.0
  0
LINE
  5
E0
330
1F
100
AcDbEntity
  8
ケース
370
    25
100
AcDbLine
 10
391.9000000000001
 20
944.7
 30
0.0
 11
734.4535450970643
 21
944.7
 31
0.0
  0
LINE
  5
E1
330
1F
100
AcDbEntity
  8
ケース
370
    25
100
AcDbLine
 10
391.9000000000001
 20
949.7
 30
0.0
 11
734.4535450970643
 21
949.7
 31
0.0
  0
LINE
  5
E2
330
1F
100
AcDbEntity
  8
ケース
370
    25
100
AcDbLine
 10
391.9000000000001
 20
909.7
 30
0.0
 11
734.4535450970643
 21
909.7
 31
0.0
  0
LINE
  5
E3
330
1F
100
AcDbEntity
  8
ケース
370
    25
100
AcDbLine
 10
391.9000000000001
 20
914.7
 30
0.0
 11
734.4535450970643
 21
914.7
 31
0.0
  0
LINE
  5
E4
330
1F
100
AcDbEntity
  8
ケース
370
    25
100
AcDbLine
 10
391.9000000000001
 20
924.7
 30
0.0
 11
734.4535450970643
 21
924.7
 31
0.0
  0
LINE
  5
E5
330
1F
100
AcDbEntity
  8
ケース
370
    25
100
AcDbLine
 10
391.9000000000001
 20
919.7
 30
0.0
 11
734.4535450970643
 21
919.7
 31
0.0
  0
LINE
  5
E6
330
1F
100
AcDbEntity
  8
ケース
370
    25
100
AcDbLine
 10
391.9000000000001
 20
929.7
 30
0.0
 11
734.4535450970643
 21
929.7
 31
0.0
  0
LINE
  5
E7
330
1F
100
AcDbEntity
  8
ケース
370
    25
100
AcDbLine
 10
391.9000000000001
 20
934.7
 30
0.0
 11
734.4535450970643
 21
934.7
 31
0.0
  0
LINE
  5
E8
330
1F
100
AcDbEntity
  8
ケース
370
    25
100
AcDbLine
 10
391.9000000000001
 20
939.7
 30
0.0
 11
734.4535450970643
 21
939.7
 31
0.0
  0
LINE
  5
E9
330
1F
100
AcDbEntity
  8
ケース
370
    25
100
AcDbLine
 10
391.9000000000001
 20
989.7
 30
0.0
 11
734.4535450970643
 21
989.7
 31
0.0
  0
LINE
  5
EA
330
1F
100
AcDbEntity
  8
ケース
370
    25
100
AcDbLine
 10
391.9000000000001
 20
994.7
 30
0.0
 11
734.4535450970643
 21
994.7
 31
0.0
  0
LINE
  5
EB
330
1F
100
AcDbEntity
  8
ケース
370
    25
100
AcDbLine
 10
391.9000000000001
 20
954.7
 30
0.0
 11
734.4535450970643
 21
954.7
 31
0.0
  0
LINE
  5
EC
330
1F
100
AcDbEntity
  8
ケース
370
    25
100
AcDbLine
 10
391.9000000000001
 20
959.7
 30
0.0
 11
734.4535450970643
 21
959.7
 31
0.0
  0
LINE
  5
ED
330
1F
100
AcDbEntity
  8
ケース
370
    25
100
AcDbLine
 10
391.9000000000001
 20
969.7
 30
0.0
 11
734.4535450970643
 21
969.7
 31
0.0
  0
LINE
  5
EE
330
1F
100
AcDbEntity
  8
ケース
370
    25
100
AcDbLine
 10
391.9000000000001
 20
964.7
 30
0.0
 11
734.4535450970643
 21
964.7
 31
0.0
  0
LINE
  5
EF
330
1F
100
AcDbEntity
  8
ケース
370
    25
100
AcDbLine
 10
391.9000000000001
 20
974.7
 30
0.0
 11
734.4535450970643
 21
974.7
 31
0.0
  0
LINE
  5
F0
330
1F
100
AcDbEntity
  8
ケース
370
    25
100
AcDbLine
 10
391.9000000000001
 20
979.7
 30
0.0
 11
734.4535450970643
 21
979.7
 31
0.0
  0
LINE
  5
F1
330
1F
100
AcDbEntity
  8
ケース
370
    25
100
AcDbLine
 10
391.9000000000001
 20
984.7
 30
0.0
 11
734.4535450970643
 21
984.7
 31
0.0
  0
LINE
  5
F2
330
1F
100
AcDbEntity
  8
ケース
370
    25
100
AcDbLine
 10
391.9000000000001
 20
1034.7
 30
0.0
 11
734.4535450970643
 21
1034.7
 31
0.0
  0
LINE
  5
F3
330
1F
100
AcDbEntity
  8
ケース
370
    25
100
AcDbLine
 10
391.9000000000001
 20
999.7
 30
0.0
 11
734.4535450970643
 21
999.7
 31
0.0
  0
LINE
  5
F4
330
1F
100
AcDbEntity
  8
ケース
370
    25
100
AcDbLine
 10
391.9000000000001
 20
1004.7
 30
0.0
 11
734.4535450970643
 21
1004.7
 31
0.0
  0
LINE
  5
F5
330
1F
100
AcDbEntity
  8
ケース
370
    25
100
AcDbLine
 10
391.9000000000001
 20
1014.7
 30
0.0
 11
734.4535450970643
 21
1014.7
 31
0.0
  0
LINE
  5
F6
330
1F
100
AcDbEntity
  8
ケース
370
    25
100
AcDbLine
 10
391.9000000000001
 20
1009.7
 30
0.0
 11
734.4535450970643
 21
1009.7
 31
0.0
  0
LINE
  5
F7
330
1F
100
AcDbEntity
  8
ケース
370
    25
100
AcDbLine
 10
391.9000000000001
 20
1019.7
 30
0.0
 11
734.4535450970643
 21
1019.7
 31
0.0
  0
LINE
  5
F8
330
1F
100
AcDbEntity
  8
ケース
370
    25
100
AcDbLine
 10
391.9000000000001
 20
1024.7
 30
0.0
 11
734.4535450970643
 21
1024.7
 31
0.0
  0
LINE
  5
F9
330
1F
100
AcDbEntity
  8
ケース
370
    25
100
AcDbLine
 10
391.9000000000001
 20
1029.7
 30
0.0
 11
734.4535450970643
 21
1029.7
 31
0.0
  0
LINE
  5
FA
330
1F
100
AcDbEntity
  8
ケース
370
    25
100
AcDbLine
 10
393.5
 20
1257.0
 30
0.0
 11
419.819660112501
 21
1257.0
 31
0.0
  0
LINE
  5
FB
330
1F
100
AcDbEntity
  8
ケース
370
    25
100
AcDbLine
 10
444.180339887499
 20
1257.0
 30
0.0
 11
679.819660112501
 21
1257.0
 31
0.0
  0
LINE
  5
FC
330
1F
100
AcDbEntity
  8
ケース
370
    25
100
AcDbLine
 10
704.180339887499
 20
1257.0
 30
0.0
 11
731.0999999999999
 21
1257.0
 31
0.0
  0
LINE
  5
FD
330
1F
100
AcDbEntity
  8
ケース
370
    25
100
AcDbLine
 10
400.0899888641288
 20
1262.0
 30
0.0
 11
723.9100111358712
 21
1262.0
 31
0.0
  0
LINE
  5
FE
330
1F
100
AcDbEntity
  8
ケース
370
    25
100
AcDbLine
 10
708.0
 20
1220.9
 30
0.0
 11
731.0999999999999
 21
1220.9
 31
0.0
  0
LINE
  5
FF
330
1F
100
AcDbEntity
  8
ケース
370
    25
100
AcDbLine
 10
707.9596122944413
 20
1215.9
 30
0.0
 11
731.0999999999999
 21
1215.9
 31
0.0
  0
LINE
  5
100
330
1F
100
AcDbEntity
  8
ケース
370
    25
100
AcDbLine
 10
706.7036491490408
 20
1210.9
 30
0.0
 11
731.0999999999999
 21
1210.9
 31
0.0
  0
LINE
  5
101
330
1F
100
AcDbEntity
  8
ケース
370
    25
100
AcDbLine
 10
624.7441860465115
 20
1220.9
 30
0.0
 11
676.0
 21
1220.9
 31
0.0
  0
LINE
  5
102
330
1F
100
AcDbEntity
  8
ケース
370
    25
100
AcDbLine
 10
623.968992248062
 20
1215.9
 30
0.0
 11
676.0403877055587
 21
1215.9
 31
0.0
  0
LINE
  5
103
330
1F
100
AcDbEntity
  8
ケース
370
    25
100
AcDbLine
 10
623.1937984496121
 20
1210.9
 30
0.0
 11
677.2963508509592
 21
1210.9
 31
0.0
  0
LINE
  5
104
330
1F
100
AcDbEntity
  8
ケース
370
    25
100
AcDbLine
 10
513.4230739332161
 20
1220.9
 30
0.0
 11
610.576926066783
 21
1220.9
 31
0.0
  0
LINE
  5
105
330
1F
100
AcDbEntity
  8
ケース
370
    25
100
AcDbLine
 10
514.198267731666
 20
1215.9
 30
0.0
 11
609.8017322683331
 21
1215.9
 31
0.0
  0
LINE
  5
106
330
1F
100
AcDbEntity
  8
ケース
370
    25
100
AcDbLine
 10
514.9734615301154
 20
1210.9
 30
0.0
 11
609.0265384698837
 21
1210.9
 31
0.0
  0
LINE
  5
107
330
1F
100
AcDbEntity
  8
ケース
370
    25
100
AcDbLine
 10
515.7486553285653
 20
1205.9
 30
0.0
 11
608.2513446714338
 21
1205.9
 31
0.0
  0
LINE
  5
108
330
1F
100
AcDbEntity
  8
ケース
370
    25
100
AcDbLine
 10
393.5
 20
1220.9
 30
0.0
 11
416.0
 21
1220.9
 31
0.0
  0
LINE
  5
109
330
1F
100
AcDbEntity
  8
ケース
370
    25
100
AcDbLine
 10
393.5
 20
1215.9
 30
0.0
 11
416.0403877055587
 21
1215.9
 31
0.0
  0
LINE
  5
10A
330
1F
100
AcDbEntity
  8
ケース
370
    25
100
AcDbLine
 10
393.5
 20
1210.9
 30
0.0
 11
417.2963508509592
 21
1210.9
 31
0.0
  0
LINE
  5
10B
330
1F
100
AcDbEntity
  8
ケース
370
    25
100
AcDbLine
 10
400.1376205218153
 20
1205.9
 30
0.0
 11
420.9108969675199
 21
1205.9
 31
0.0
  0
LINE
  5
10C
330
1F
100
AcDbEntity
  8
ケース
370
    25
100
AcDbLine
 10
443.0891030324801
 20
1205.9
 30
0.0
 11
501.5813953488368
 21
1205.9
 31
0.0
  0
LINE
  5
10D
330
1F
100
AcDbEntity
  8
ケース
370
    25
100
AcDbLine
 10
446.7036491490408
 20
1210.9
 30
0.0
 11
500.8062015503874
 21
1210.9
 31
0.0
  0
LINE
  5
10E
330
1F
100
AcDbEntity
  8
ケース
370
    25
100
AcDbLine
 10
447.9596122944413
 20
1215.9
 30
0.0
 11
500.031007751938
 21
1215.9
 31
0.0
  0
LINE
  5
10F
330
1F
100
AcDbEntity
  8
ケース
370
    25
100
AcDbLine
 10
448.0
 20
1220.9
 30
0.0
 11
499.2558139534881
 21
1220.9
 31
0.0
  0
LINE
  5
110
330
1F
100
AcDbEntity
  8
ケース
370
    25
100
AcDbLine
 10
391.9000000000001
 20
824.7
 30
0.0
 11
404.5640502433675
 21
824.7
 31
0.0
  0
LINE
  5
111
330
1F
100
AcDbEntity
  8
ケース
370
    25
100
AcDbLine
 10
391.9000000000001
 20
814.7
 30
0.0
 11
401.5776518632415
 21
814.7
 31
0.0
  0
LINE
  5
112
330
1F
100
AcDbEntity
  8
ケース
370
    25
100
AcDbLine
 10
391.9000000000001
 20
819.7
 30
0.0
 11
401.2196859962924
 21
819.7
 31
0.0
  0
LINE
  5
113
330
1F
100
AcDbEntity
  8
ケース
370
    25
100
AcDbLine
 10
391.9000000000001
 20
809.7
 30
0.0
 11
406.8611366083101
 21
809.7
 31
0.0
  0
LINE
  5
114
330
1F
100
AcDbEntity
  8
ケース
370
    25
100
AcDbLine
 10
391.9000000000001
 20
1049.7
 30
0.0
 11
401.2386441790709
 21
1049.7
 31
0.0
  0
LINE
  5
115
330
1F
100
AcDbEntity
  8
ケース
370
    25
100
AcDbLine
 10
391.9000000000001
 20
1044.7
 30
0.0
 11
401.5470131397065
 21
1044.7
 31
0.0
  0
LINE
  5
116
330
1F
100
AcDbEntity
  8
ケース
370
    25
100
AcDbLine
 10
400.430890484356
 20
1054.7
 30
0.0
 11
404.6781746195034
 21
1054.7
 31
0.0
  0
LINE
  5
117
330
1F
100
AcDbEntity
  8
ケース
370
    25
100
AcDbLine
 10
391.9000000000001
 20
1039.7
 30
0.0
 11
406.6277186767311
 21
1039.7
 31
0.0
  0
LINE
  5
118
330
1F
100
AcDbEntity
  8
ケース
370
    25
100
AcDbLine
 10
414.3218253804966
 20
1054.7
 30
0.0
 11
709.6781746195034
 21
1054.7
 31
0.0
  0
LINE
  5
119
330
1F
100
AcDbEntity
  8
ケース
370
    25
100
AcDbLine
 10
719.3218253804966
 20
1054.7
 30
0.0
 11
723.569109515644
 21
1054.7
 31
0.0
  0
LINE
  5
11A
330
1F
100
AcDbEntity
  8
ケース
370
    25
100
AcDbLine
 10
417.7613558209291
 20
1049.7
 30
0.0
 11
706.2386441790709
 21
1049.7
 31
0.0
  0
LINE
  5
11B
330
1F
100
AcDbEntity
  8
ケース
370
    25
100
AcDbLine
 10
417.4529868602935
 20
1044.7
 30
0.0
 11
706.5470131397065
 21
1044.7
 31
0.0
  0
LINE
  5
11C
330
1F
100
AcDbEntity
  8
ケース
370
    25
100
AcDbLine
 10
412.3722813232689
 20
1039.7
 30
0.0
 11
711.6277186767311
 21
1039.7
 31
0.0
  0
LINE
  5
11D
330
1F
100
AcDbEntity
  8
ケース
370
    25
100
AcDbLine
 10
717.3722813232689
 20
1039.7
 30
0.0
 11
734.4535450970643
 21
1039.7
 31
0.0
  0
LINE
  5
11E
330
1F
100
AcDbEntity
  8
ケース
370
    25
100
AcDbLine
 10
722.4529868602935
 20
1044.7
 30
0.0
 11
734.4535450970643
 21
1044.7
 31
0.0
  0
LINE
  5
11F
330
1F
100
AcDbEntity
  8
ケース
370
    25
100
AcDbLine
 10
722.7613558209291
 20
1049.7
 30
0.0
 11
734.4535450970643
 21
1049.7
 31
0.0
  0
LINE
  5
120
330
1F
100
AcDbEntity
  8
ケース
370
    25
100
AcDbLine
 10
719.4359497566325
 20
824.7
 30
0.0
 11
734.4535450970643
 21
824.7
 31
0.0
  0
LINE
  5
121
330
1F
100
AcDbEntity
  8
ケース
370
    25
100
AcDbLine
 10
722.7803140037076
 20
819.7
 30
0.0
 11
734.4535450970643
 21
819.7
 31
0.0
  0
LINE
  5
122
330
1F
100
AcDbEntity
  8
ケース
370
    25
100
AcDbLine
 10
722.4223481367585
 20
814.7
 30
0.0
 11
734.4535450970643
 21
814.7
 31
0.0
  0
LINE
  5
123
330
1F
100
AcDbEntity
  8
ケース
370
    25
100
AcDbLine
 10
717.1388633916899
 20
809.7
 30
0.0
 11
734.4535450970643
 21
809.7
 31
0.0
  0
LINE
  5
124
330
1F
100
AcDbEntity
  8
ケース
370
    25
100
AcDbLine
 10
703.0891030324801
 20
1205.9
 30
0.0
 11
723.8623794781847
 21
1205.9
 31
0.0
  0
LINE
  5
125
330
1F
100
AcDbEntity
  8
ケース
370
    25
100
AcDbLine
 10
622.4186046511627
 20
1205.9
 30
0.0
 11
680.9108969675199
 21
1205.9
 31
0.0
  0
ARC
  5
126
330
1F
100
AcDbEntity
  8
ケース
100
AcDbCircle
 10
727.4
 20
355.8
 30
0.0
 40
22.0
100
AcDbArc
 50
270.0
 51
0.0
  0
LINE
  5
127
330
1F
100
AcDbEntity
  8
ケース
100
AcDbLine
 10
366.4
 20
620.45
 30
0.0
 11
366.4
 21
356.3
 31
0.0
  0
LINE
  5
128
330
1F
100
AcDbEntity
  8
ケース
100
AcDbLine
 10
727.4
 20
637.3
 30
0.0
 11
383.4
 21
637.3
 31
0.0
  0
LINE
  5
129
330
1F
100
AcDbEntity
  8
ケース
100
AcDbLine
 10
744.4
 20
356.3
 30
0.0
 11
744.4
 21
620.3
 31
0.0
  0
LINE
  5
12A
330
1F
100
AcDbEntity
  8
ケース
100
AcDbLine
 10
749.4
 20
355.8
 30
0.0
 11
749.4
 21
620.8
 31
0.0
  0
LINE
  5
12B
330
1F
100
AcDbEntity
  8
ケース
100
AcDbLine
 10
361.4
 20
620.8
 30
0.0
 11
361.4
 21
355.8
 31
0.0
  0
ARC
  5
12C
330
1F
100
AcDbEntity
  8
ケース
100
AcDbCircle
 10
727.4
 20
620.3
 30
0.0
 40
13.0
100
AcDbArc
 50
0.0
 51
90.0
  0
ARC
  5
12D
330
1F
100
AcDbEntity
  8
ケース
100
AcDbCircle
 10
727.4
 20
620.8
 30
0.0
 40
22.0
100
AcDbArc
 50
0.0
 51
90.0
  0
ARC
  5
12E
330
1F
100
AcDbEntity
  8
ケース
100
AcDbCircle
 10
383.4
 20
620.8
 30
0.0
 40
22.0
100
AcDbArc
 50
90.0
 51
180.0
  0
ARC
  5
12F
330
1F
100
AcDbEntity
  8
ケース
100
AcDbCircle
 10
727.4
 20
620.3
 30
0.0
 40
17.0
100
AcDbArc
 50
0.0
 51
90.0
  0
ARC
  5
130
330
1F
100
AcDbEntity
  8
ケース
100
AcDbCircle
 10
383.4
 20
620.3
 30
0.0
 40
17.0
100
AcDbArc
 50
90.0
 51
180.0
  0
LINE
  5
131
330
1F
100
AcDbEntity
  8
ケース
100
AcDbLine
 10
740.4
 20
583.3
 30
0.0
 11
740.4
 21
620.3
 31
0.0
  0
LINE
  5
132
330
1F
100
AcDbEntity
  8
ケース
100
AcDbLine
 10
370.4
 20
620.3
 30
0.0
 11
370.4
 21
583.3
 31
0.0
  0
ARC
  5
133
330
1F
100
AcDbEntity
  8
ケース
100
AcDbCircle
 10
383.4
 20
620.3
 30
0.0
 40
13.0
100
AcDbArc
 50
90.0
 51
180.0
  0
LINE
  5
134
330
1F
100
AcDbEntity
  8
ケース
100
AcDbLine
 10
727.4
 20
633.3
 30
0.0
 11
383.4
 21
633.3
 31
0.0
  0
LINE
  5
135
330
1F
100
AcDbEntity
  8
ケース
100
AcDbLine
 10
727.4
 20
642.8
 30
0.0
 11
383.4
 21
642.8
 31
0.0
  0
ARC
  5
136
330
1F
100
AcDbEntity
  8
ケース
100
AcDbCircle
 10
727.4
 20
356.3
 30
0.0
 40
17.0
100
AcDbArc
 50
270.0
 51
0.0
  0
ARC
  5
137
330
1F
100
AcDbEntity
  8
ケース
100
AcDbCircle
 10
383.4
 20
355.8
 30
0.0
 40
22.0
100
AcDbArc
 50
180.0
 51
270.0
  0
LINE
  5
138
330
1F
100
AcDbEntity
  8
ケース
100
AcDbLine
 10
383.4
 20
339.3
 30
0.0
 11
727.4
 21
339.3
 31
0.0
  0
ARC
  5
139
330
1F
100
AcDbEntity
  8
ケース
100
AcDbCircle
 10
383.4
 20
356.3
 30
0.0
 40
17.0
100
AcDbArc
 50
180.0
 51
270.0
  0
LINE
  5
13A
330
1F
100
AcDbEntity
  8
ケース
100
AcDbLine
 10
383.4
 20
333.8
 30
0.0
 11
727.4
 21
333.8
 31
0.0
  0
LINE
  5
13B
330
1F
100
AcDbEntity
  8
ケース
370
    25
100
AcDbLine
 10
391.9000000000001
 20
834.7
 30
0.0
 11
649.45
 21
834.7
 31
0.0
  0
LINE
  5
13C
330
1F
100
AcDbEntity
  8
ケース
370
    25
100
AcDbLine
 10
699.45
 20
834.7
 30
0.0
 11
734.4535450970643
 21
834.7
 31
0.0
  0
LINE
  5
13D
330
1F
100
AcDbEntity
  8
ケース
370
    25
100
AcDbLine
 10
391.9000000000001
 20
829.7
 30
0.0
 11
649.45
 21
829.7
 31
0.0
  0
LINE
  5
13E
330
1F
100
AcDbEntity
  8
ケース
370
    25
100
AcDbLine
 10
699.45
 20
829.7
 30
0.0
 11
734.4535450970643
 21
829.7
 31
0.0
  0
LINE
  5
13F
330
1F
100
AcDbEntity
  8
ケース
370
    25
100
AcDbLine
 10
414.4359497566325
 20
824.7
 30
0.0
 11
649.45
 21
824.7
 31
0.0
  0
LINE
  5
140
330
1F
100
AcDbEntity
  8
ケース
370
    25
100
AcDbLine
 10
699.45
 20
824.7
 30
0.0
 11
709.5640502433675
 21
824.7
 31
0.0
  0
LINE
  5
141
330
1F
100
AcDbEntity
  8
ケース
370
    25
100
AcDbLine
 10
417.7803140037076
 20
819.7
 30
0.0
 11
649.45
 21
819.7
 31
0.0
  0
LINE
  5
142
330
1F
100
AcDbEntity
  8
ケース
370
    25
100
AcDbLine
 10
699.45
 20
819.7
 30
0.0
 11
706.2196859962924
 21
819.7
 31
0.0
  0
LINE
  5
143
330
1F
100
AcDbEntity
  8
ケース
370
    25
100
AcDbLine
 10
417.4223481367585
 20
814.7
 30
0.0
 11
649.45
 21
814.7
 31
0.0
  0
LINE
  5
144
330
1F
100
AcDbEntity
  8
ケース
370
    25
100
AcDbLine
 10
699.45
 20
814.7
 30
0.0
 11
706.5776518632415
 21
814.7
 31
0.0
  0
LINE
  5
145
330
1F
100
AcDbEntity
  8
ケース
370
    25
100
AcDbLine
 10
412.1388633916899
 20
809.7
 30
0.0
 11
649.45
 21
809.7
 31
0.0
  0
LINE
  5
146
330
1F
100
AcDbEntity
  8
ケース
370
    25
100
AcDbLine
 10
699.45
 20
809.7
 30
0.0
 11
711.8611366083101
 21
809.7
 31
0.0
  0
ARC
  5
147
330
1F
100
AcDbEntity
  8
部品
100
AcDbCircle
 10
682.7999999999997
 20
1215.0
 30
0.0
 40
0.5
100
AcDbArc
 50
180.0
 51
270.0
  0
LINE
  5
148
330
1F
100
AcDbEntity
  8
部品
100
AcDbLine
 10
512.5248439666348
 20
1226.693583284451
 30
0.0
 11
518.1774990167623
 21
1190.233958211127
 31
0.0
  0
LINE
  5
149
330
1F
100
AcDbEntity
  8
部品
100
AcDbLine
 10
683.2999999999997
 20
1215.0
 30
0.0
 11
683.5
 21
1215.0
 31
0.0
  0
ARC
  5
14A
330
1F
100
AcDbEntity
  8
部品
100
AcDbCircle
 10
682.7999999999997
 20
1215.0
 30
0.0
 40
0.5
100
AcDbArc
 50
270.0
 51
0.0
  0
LINE
  5
14B
330
1F
100
AcDbEntity
  8
部品
100
AcDbLine
 10
523.1184685549911
 20
1186.0
 30
0.0
 11
536.75
 21
1190.233958211127
 31
0.0
  0
ARC
  5
14C
330
1F
100
AcDbEntity
  8
部品
100
AcDbCircle
 10
682.7999999999997
 20
1216.0
 30
0.0
 40
0.5
100
AcDbArc
 50
0.0
 51
90.0
  0
ARC
  5
14D
330
1F
100
AcDbEntity
  8
部品
100
AcDbCircle
 10
562.0
 20
1107.470746304354
 30
0.0
 40
86.52925369564645
100
AcDbArc
 50
73.03372108414496
 51
106.9662789158551
  0
ARC
  5
14E
330
1F
100
AcDbEntity
  8
部品
100
AcDbCircle
 10
523.1184685549911
 20
1191.0
 30
0.0
 40
5.0
100
AcDbArc
 50
188.8129016377444
 51
270.0
  0
LINE
  5
14F
330
1F
100
AcDbEntity
  8
部品
100
AcDbLine
 10
679.7999999999997
 20
1211.0
 30
0.0
 11
680.0
 21
1211.0
 31
0.0
  0
ARC
  5
150
330
1F
100
AcDbEntity
  8
部品
100
AcDbCircle
 10
600.8815314450085
 20
1191.0
 30
0.0
 40
5.0
100
AcDbArc
 50
270.0
 51
351.1870983622555
  0
LWPOLYLINE
  5
151
330
1F
100
AcDbEntity
  8
部品
100
AcDbPolyline
 90
        5
 70
     0
 43
0.0
 10
472.0
 20
776.8912259325613
 10
472.0
 20
773.8912259325613
 10
437.0
 20
773.8912259325613
 10
437.0
 20
776.8912259325613
 10
472.0
 20
776.8912259325613
  0
LINE
  5
152
330
1F
100
AcDbEntity
  8
部品
100
AcDbLine
 10
683.5
 20
1215.5
 30
0.0
 11
683.5
 21
1220.22
 31
0.0
  0
LINE
  5
153
330
1F
100
AcDbEntity
  8
部品
100
AcDbLine
 10
699.5
 20
1212.97
 30
0.0
 11
699.5
 21
1219.92
 31
0.0
  0
LINE
  5
154
330
1F
100
AcDbEntity
  8
部品
100
AcDbLine
 10
684.5
 20
1219.92
 30
0.0
 11
684.5
 21
1212.97
 31
0.0
  0
ARC
  5
155
330
1F
100
AcDbEntity
  8
部品
100
AcDbCircle
 10
691.0
 20
1217.0
 30
0.0
 40
15.0
100
AcDbArc
 50
180.0
 51
242.207107201391
  0
LINE
  5
156
330
1F
100
AcDbEntity
  8
部品
100
AcDbLine
 10
760.5
 20
1229.0
 30
0.0
 11
757.5
 21
1229.0
 31
0.0
  0
ARC
  5
157
330
1F
100
AcDbEntity
  8
部品
100
AcDbCircle
 10
759.0
 20
1205.5
 30
0.0
 40
1.5
100
AcDbArc
 50
180.0
 51
270.0
  0
ARC
  5
158
330
1F
100
AcDbEntity
  8
部品
100
AcDbCircle
 10
693.0
 20
1217.0
 30
0.0
 40
15.0
100
AcDbArc
 50
297.792892798609
 51
0.0
  0
LINE
  5
159
330
1F
100
AcDbEntity
  8
部品
100
AcDbLine
 10
699.5
 20
1219.92
 30
0.0
 11
684.5
 21
1219.92
 31
0.0
  0
LINE
  5
15A
330
1F
100
AcDbEntity
  8
部品
100
AcDbLine
 10
444.1999999999998
 20
1211.0
 30
0.0
 11
444.0
 21
1211.0
 31
0.0
  0
LINE
  5
15B
330
1F
100
AcDbEntity
  8
部品
100
AcDbLine
 10
444.1999999999998
 20
1210.0
 30
0.0
 11
444.0
 21
1210.0
 31
0.0
  0
LINE
  5
15C
330
1F
100
AcDbEntity
  8
部品
100
AcDbLine
 10
416.0
 20
1239.5
 30
0.0
 11
419.0
 21
1239.5
 31
0.0
  0
ARC
  5
15D
330
1F
100
AcDbEntity
  8
部品
100
AcDbCircle
 10
444.6999999999998
 20
1210.0
 30
0.0
 40
0.5
100
AcDbArc
 50
270.0
 51
0.0
  0
LINE
  5
15E
330
1F
100
AcDbEntity
  8
部品
100
AcDbLine
 10
416.0
 20
1238.5
 30
0.0
 11
419.0
 21
1238.5
 31
0.0
  0
ARC
  5
15F
330
1F
100
AcDbEntity
  8
部品
100
AcDbCircle
 10
444.6999999999998
 20
1211.0
 30
0.0
 40
0.5
100
AcDbArc
 50
90.0
 51
180.0
  0
ARC
  5
160
330
1F
100
AcDbEntity
  8
部品
100
AcDbCircle
 10
444.6999999999998
 20
1210.0
 30
0.0
 40
0.5
100
AcDbArc
 50
180.0
 51
270.0
  0
ARC
  5
161
330
1F
100
AcDbEntity
  8
部品
100
AcDbCircle
 10
692.5
 20
1242.5
 30
0.0
 40
8.0
100
AcDbArc
 50
0.0
 51
90.0
  0
ARC
  5
162
330
1F
100
AcDbEntity
  8
部品
100
AcDbCircle
 10
691.5
 20
1242.5
 30
0.0
 40
8.0
100
AcDbArc
 50
90.0
 51
180.0
  0
LINE
  5
163
330
1F
100
AcDbEntity
  8
部品
100
AcDbLine
 10
431.5
 20
1198.53
 30
0.0
 11
432.5
 21
1198.53
 31
0.0
  0
CIRCLE
  5
164
330
1F
100
AcDbEntity
  8
部品
100
AcDbCircle
 10
692.0
 20
1228.5
 30
0.0
 40
3.5
  0
ARC
  5
165
330
1F
100
AcDbEntity
  8
部品
100
AcDbCircle
 10
708.5
 20
1087.05
 30
0.0
 40
1.0
100
AcDbArc
 50
0.0
 51
90.0
  0
ARC
  5
166
330
1F
100
AcDbEntity
  8
部品
100
AcDbCircle
 10
431.5
 20
1206.53
 30
0.0
 40
8.0
100
AcDbArc
 50
180.0
 51
270.0
  0
ARC
  5
167
330
1F
100
AcDbEntity
  8
部品
100
AcDbCircle
 10
432.5
 20
1206.53
 30
0.0
 40
8.0
100
AcDbArc
 50
270.0
 51
0.0
  0
ARC
  5
168
330
1F
100
AcDbEntity
  8
部品
100
AcDbCircle
 10
692.0
 20
1239.89
 30
0.0
 40
13.0
100
AcDbArc
 50
0.0
 51
90.0
  0
ARC
  5
169
330
1F
100
AcDbEntity
  8
部品
100
AcDbCircle
 10
692.0
 20
1239.89
 30
0.0
 40
13.0
100
AcDbArc
 50
90.0
 51
180.0
  0
ARC
  5
16A
330
1F
100
AcDbEntity
  8
部品
100
AcDbCircle
 10
692.0
 20
1239.89
 30
0.0
 40
10.0
100
AcDbArc
 50
136.7282330414182
 51
180.0
  0
ARC
  5
16B
330
1F
100
AcDbEntity
  8
部品
100
AcDbCircle
 10
692.0
 20
1239.89
 30
0.0
 40
10.0
100
AcDbArc
 50
0.0
 51
43.27176695858181
  0
ARC
  5
16C
330
1F
100
AcDbEntity
  8
部品
100
AcDbCircle
 10
422.7999999999997
 20
1215.0
 30
0.0
 40
0.5
100
AcDbArc
 50
270.0
 51
0.0
  0
LINE
  5
16D
330
1F
100
AcDbEntity
  8
部品
100
AcDbLine
 10
699.5
 20
1212.97
 30
0.0
 11
700.5
 21
1210.47
 31
0.0
  0
LINE
  5
16E
330
1F
100
AcDbEntity
  8
部品
100
AcDbLine
 10
423.2999999999997
 20
1215.0
 30
0.0
 11
423.2999999999997
 21
1216.0
 31
0.0
  0
LINE
  5
16F
330
1F
100
AcDbEntity
  8
部品
100
AcDbLine
 10
701.6999999999998
 20
1216.0
 30
0.0
 11
701.6999999999998
 21
1215.0
 31
0.0
  0
ARC
  5
170
330
1F
100
AcDbEntity
  8
部品
100
AcDbCircle
 10
422.7999999999997
 20
1216.0
 30
0.0
 40
0.5
100
AcDbArc
 50
90.0
 51
180.0
  0
LINE
  5
171
330
1F
100
AcDbEntity
  8
部品
100
AcDbLine
 10
684.5
 20
1212.97
 30
0.0
 11
683.5
 21
1210.5
 31
0.0
  0
LINE
  5
172
330
1F
100
AcDbEntity
  8
部品
100
AcDbLine
 10
700.6999999999998
 20
1216.0
 30
0.0
 11
700.5
 21
1216.0
 31
0.0
  0
LINE
  5
173
330
1F
100
AcDbEntity
  8
部品
100
AcDbLine
 10
422.2999999999997
 20
1216.0
 30
0.0
 11
422.2999999999997
 21
1215.0
 31
0.0
  0
LINE
  5
174
330
1F
100
AcDbEntity
  8
部品
100
AcDbLine
 10
700.5
 20
1210.5
 30
0.0
 11
700.5
 21
1206.53
 31
0.0
  0
ARC
  5
175
330
1F
100
AcDbEntity
  8
部品
100
AcDbCircle
 10
704.6999999999998
 20
1211.0
 30
0.0
 40
0.5
100
AcDbArc
 50
90.0
 51
180.0
  0
ARC
  5
176
330
1F
100
AcDbEntity
  8
部品
100
AcDbCircle
 10
508.0
 20
1229.0
 30
0.0
 40
10.0
100
AcDbArc
 50
90.0
 51
180.0
  0
LINE
  5
177
330
1F
100
AcDbEntity
  8
部品
100
AcDbLine
 10
700.5
 20
1220.22
 30
0.0
 11
700.5
 21
1215.5
 31
0.0
  0
LINE
  5
178
330
1F
100
AcDbEntity
  8
部品
100
AcDbLine
 10
423.2999999999997
 20
1215.0
 30
0.0
 11
423.5
 21
1215.0
 31
0.0
  0
LINE
  5
179
330
1F
100
AcDbEntity
  8
部品
100
AcDbLine
 10
700.6999999999998
 20
1215.0
 30
0.0
 11
700.5
 21
1215.0
 31
0.0
  0
LINE
  5
17A
330
1F
100
AcDbEntity
  8
部品
100
AcDbLine
 10
676.1339312526811
 20
1215.0
 30
0.0
 11
676.0
 21
1215.0
 31
0.0
  0
ARC
  5
17B
330
1F
100
AcDbEntity
  8
部品
100
AcDbCircle
 10
616.0
 20
1229.0
 30
0.0
 40
10.0
100
AcDbArc
 50
0.0000000000000102
 51
90.0
  0
LINE
  5
17C
330
1F
100
AcDbEntity
  8
部品
100
AcDbLine
 10
626.0
 20
1229.0
 30
0.0
 11
617.3284616926057
 21
1173.06857791731
 31
0.0
  0
ARC
  5
17D
330
1F
100
AcDbEntity
  8
部品
100
AcDbCircle
 10
704.6999999999998
 20
1210.0
 30
0.0
 40
0.5
100
AcDbArc
 50
270.0
 51
0.0
  0
LINE
  5
17E
330
1F
100
AcDbEntity
  8
部品
100
AcDbLine
 10
498.0
 20
1229.0
 30
0.0
 11
506.6715383073933
 21
1173.06857791731
 31
0.0
  0
LINE
  5
17F
330
1F
100
AcDbEntity
  8
部品
100
AcDbLine
 10
757.5
 20
1229.0
 30
0.0
 11
757.5
 21
1232.5
 31
0.0
  0
LINE
  5
180
330
1F
100
AcDbEntity
  8
部品
100
AcDbLine
 10
681.0
 20
1220.5
 30
0.0
 11
682.0
 21
1222.12
 31
0.0
  0
LINE
  5
181
330
1F
100
AcDbEntity
  8
部品
100
AcDbLine
 10
681.0
 20
1208.58
 30
0.0
 11
681.0
 21
1220.5
 31
0.0
  0
LINE
  5
182
330
1F
100
AcDbEntity
  8
部品
100
AcDbLine
 10
682.0
 20
1222.12
 30
0.0
 11
682.0
 21
1239.89
 31
0.0
  0
LINE
  5
183
330
1F
100
AcDbEntity
  8
部品
100
AcDbLine
 10
760.5
 20
1232.5
 30
0.0
 11
760.5
 21
1229.0
 31
0.0
  0
LINE
  5
184
330
1F
100
AcDbEntity
  8
部品
100
AcDbLine
 10
757.5
 20
1205.5
 30
0.0
 11
757.5
 21
1209.0
 31
0.0
  0
LINE
  5
185
330
1F
100
AcDbEntity
  8
部品
100
AcDbLine
 10
760.5
 20
1209.0
 30
0.0
 11
760.5
 21
1205.5
 31
0.0
  0
ARC
  5
186
330
1F
100
AcDbEntity
  8
部品
100
AcDbCircle
 10
759.0
 20
1232.5
 30
0.0
 40
1.5
100
AcDbArc
 50
90.0
 51
180.0
  0
LINE
  5
187
330
1F
100
AcDbEntity
  8
部品
100
AcDbLine
 10
757.5
 20
1209.0
 30
0.0
 11
760.5
 21
1209.0
 31
0.0
  0
ARC
  5
188
330
1F
100
AcDbEntity
  8
部品
100
AcDbCircle
 10
759.0
 20
1232.5
 30
0.0
 40
1.5
100
AcDbArc
 50
0.0
 51
90.0
  0
LINE
  5
189
330
1F
100
AcDbEntity
  8
部品
100
AcDbLine
 10
681.0
 20
1090.1
 30
0.0
 11
703.0
 21
1090.1
 31
0.0
  0
LINE
  5
18A
330
1F
100
AcDbEntity
  8
部品
100
AcDbLine
 10
757.0
 20
970.0499999999998
 30
0.0
 11
756.0
 21
970.0499999999998
 31
0.0
  0
ARC
  5
18B
330
1F
100
AcDbEntity
  8
部品
100
AcDbCircle
 10
365.0
 20
955.05
 30
0.0
 40
1.5
100
AcDbArc
 50
90.0
 51
199.9484435888119
  0
ARC
  5
18C
330
1F
100
AcDbEntity
  8
部品
100
AcDbCircle
 10
365.0
 20
951.05
 30
0.0
 40
2.0
100
AcDbArc
 50
0.0
 51
37.34474435400887
  0
LINE
  5
18D
330
1F
100
AcDbEntity
  8
部品
100
AcDbLine
 10
367.0
 20
970.05
 30
0.0
 11
368.0
 21
970.05
 31
0.0
  0
LINE
  5
18E
330
1F
100
AcDbEntity
  8
部品
100
AcDbLine
 10
368.0
 20
970.05
 30
0.0
 11
368.0
 21
930.2199999999999
 31
0.0
  0
LINE
  5
18F
330
1F
100
AcDbEntity
  8
部品
100
AcDbLine
 10
368.0
 20
930.2199999999999
 30
0.0
 11
367.0
 21
930.2199999999999
 31
0.0
  0
LINE
  5
190
330
1F
100
AcDbEntity
  8
部品
100
AcDbLine
 10
367.0
 20
930.2199999999999
 30
0.0
 11
367.0
 21
951.05
 31
0.0
  0
LINE
  5
191
330
1F
100
AcDbEntity
  8
部品
100
AcDbLine
 10
714.5
 20
776.8912259325613
 30
0.0
 11
697.5
 21
776.8912259325613
 31
0.0
  0
LINE
  5
192
330
1F
100
AcDbEntity
  8
部品
100
AcDbLine
 10
367.0
 20
959.05
 30
0.0
 11
367.0
 21
970.05
 31
0.0
  0
LINE
  5
193
330
1F
100
AcDbEntity
  8
部品
100
AcDbLine
 10
697.5
 20
776.8912259325613
 30
0.0
 11
700.5
 21
766.8912259325613
 31
0.0
  0
ARC
  5
194
330
1F
100
AcDbEntity
  8
部品
100
AcDbCircle
 10
365.0
 20
959.05
 30
0.0
 40
2.0
100
AcDbArc
 50
270.0
 51
0.0
  0
LINE
  5
195
330
1F
100
AcDbEntity
  8
部品
100
AcDbLine
 10
711.5
 20
766.8912259325613
 30
0.0
 11
714.5
 21
776.8912259325613
 31
0.0
  0
LINE
  5
196
330
1F
100
AcDbEntity
  8
部品
100
AcDbLine
 10
611.4751560333643
 20
1226.693583284451
 30
0.0
 11
605.8225009832368
 21
1190.233958211127
 31
0.0
  0
LINE
  5
197
330
1F
100
AcDbEntity
  8
部品
100
AcDbLine
 10
514.0
 20
1228.93617321043
 30
0.0
 11
514.0
 21
1239.0
 31
0.0
  0
LINE
  5
198
330
1F
100
AcDbEntity
  8
部品
100
AcDbLine
 10
600.8815314450085
 20
1186.0
 30
0.0
 11
587.2499999999995
 21
1190.233958211127
 31
0.0
  0
LINE
  5
199
330
1F
100
AcDbEntity
  8
部品
100
AcDbLine
 10
610.0
 20
1228.93617321043
 30
0.0
 11
610.0
 21
1239.0
 31
0.0
  0
LINE
  5
19A
330
1F
100
AcDbEntity
  8
部品
100
AcDbLine
 10
508.0
 20
1239.0
 30
0.0
 11
514.0
 21
1239.0
 31
0.0
  0
LINE
  5
19B
330
1F
100
AcDbEntity
  8
部品
100
AcDbLine
 10
448.0
 20
1217.0
 30
0.0
 11
448.0
 21
1238.5
 31
0.0
  0
LINE
  5
19C
330
1F
100
AcDbEntity
  8
部品
100
AcDbLine
 10
448.0
 20
1239.5
 30
0.0
 11
448.0
 21
1247.0
 31
0.0
  0
ARC
  5
19D
330
1F
100
AcDbEntity
  8
部品
100
AcDbCircle
 10
365.0
 20
959.05
 30
0.0
 40
2.5
100
AcDbArc
 50
270.0
 51
0.0
  0
LINE
  5
19E
330
1F
100
AcDbEntity
  8
部品
100
AcDbLine
 10
700.5
 20
1220.5
 30
0.0
 11
700.5
 21
1213.5
 31
0.0
  0
LINE
  5
19F
330
1F
100
AcDbEntity
  8
部品
100
AcDbLine
 10
416.0
 20
1247.0
 30
0.0
 11
416.0
 21
1239.5
 31
0.0
  0
LINE
  5
1A0
330
1F
100
AcDbEntity
  8
部品
100
AcDbLine
 10
366.5899999999997
 20
954.9799999999999
 30
0.0
 11
366.5899999999997
 21
934.55
 31
0.0
  0
LINE
  5
1A1
330
1F
100
AcDbEntity
  8
部品
100
AcDbLine
 10
700.0
 20
1220.5
 30
0.0
 11
684.0
 21
1220.5
 31
0.0
  0
LINE
  5
1A2
330
1F
100
AcDbEntity
  8
部品
100
AcDbLine
 10
700.0
 20
1213.5
 30
0.0
 11
700.0
 21
1220.5
 31
0.0
  0
LINE
  5
1A3
330
1F
100
AcDbEntity
  8
部品
100
AcDbLine
 10
440.0
 20
1213.5
 30
0.0
 11
440.5
 21
1213.5
 31
0.0
  0
LINE
  5
1A4
330
1F
100
AcDbEntity
  8
部品
100
AcDbLine
 10
367.5
 20
930.2199999999999
 30
0.0
 11
367.5
 21
970.05
 31
0.0
  0
ARC
  5
1A5
330
1F
100
AcDbEntity
  8
部品
100
AcDbCircle
 10
432.0
 20
1239.89
 30
0.0
 40
13.0
100
AcDbArc
 50
0.0
 51
90.0
  0
LINE
  5
1A6
330
1F
100
AcDbEntity
  8
部品
100
AcDbLine
 10
416.0
 20
1238.5
 30
0.0
 11
416.0
 21
1217.0
 31
0.0
  0
ARC
  5
1A7
330
1F
100
AcDbEntity
  8
部品
100
AcDbCircle
 10
365.0899999999997
 20
954.9799999999999
 30
0.0
 40
1.5
100
AcDbArc
 50
90.0
 51
180.0
  0
LINE
  5
1A8
330
1F
100
AcDbEntity
  8
部品
100
AcDbLine
 10
363.5899999999997
 20
934.55
 30
0.0
 11
363.5899999999997
 21
954.9799999999999
 31
0.0
  0
ARC
  5
1A9
330
1F
100
AcDbEntity
  8
部品
100
AcDbCircle
 10
432.0
 20
1239.89
 30
0.0
 40
10.0
100
AcDbArc
 50
0.0
 51
43.27176695858184
  0
ARC
  5
1AA
330
1F
100
AcDbEntity
  8
部品
100
AcDbCircle
 10
365.0899999999997
 20
934.55
 30
0.0
 40
1.5
100
AcDbArc
 50
270.0
 51
0.0
  0
LINE
  5
1AB
330
1F
100
AcDbEntity
  8
部品
100
AcDbLine
 10
420.0
 20
1220.5
 30
0.0
 11
419.0
 21
1222.12
 31
0.0
  0
ARC
  5
1AC
330
1F
100
AcDbEntity
  8
部品
100
AcDbCircle
 10
432.0
 20
1239.89
 30
0.0
 40
10.0
100
AcDbArc
 50
136.7282330414182
 51
180.0
  0
ARC
  5
1AD
330
1F
100
AcDbEntity
  8
部品
100
AcDbCircle
 10
365.0899999999997
 20
954.9799999999999
 30
0.0
 40
1.5
100
AcDbArc
 50
0.0
 51
90.0
  0
LINE
  5
1AE
330
1F
100
AcDbEntity
  8
部品
100
AcDbLine
 10
421.0
 20
1220.5
 30
0.0
 11
422.0
 21
1222.12
 31
0.0
  0
ARC
  5
1AF
330
1F
100
AcDbEntity
  8
部品
100
AcDbCircle
 10
365.0
 20
951.05
 30
0.0
 40
2.5
100
AcDbArc
 50
0.0
 51
50.50580788203746
  0
ARC
  5
1B0
330
1F
100
AcDbEntity
  8
部品
100
AcDbCircle
 10
365.0899999999997
 20
934.55
 30
0.0
 40
1.5
100
AcDbArc
 50
180.0
 51
270.0
  0
LINE
  5
1B1
330
1F
100
AcDbEntity
  8
部品
100
AcDbLine
 10
420.0
 20
1220.5
 30
0.0
 11
420.0
 21
1208.58
 31
0.0
  0
ARC
  5
1B2
330
1F
100
AcDbEntity
  8
部品
100
AcDbCircle
 10
365.0
 20
955.05
 30
0.0
 40
2.0
100
AcDbArc
 50
90.0
 51
225.1704559498258
  0
LINE
  5
1B3
330
1F
100
AcDbEntity
  8
部品
100
AcDbLine
 10
700.0
 20
1216.0
 30
0.0
 11
699.5
 21
1216.0
 31
0.0
  0
ARC
  5
1B4
330
1F
100
AcDbEntity
  8
部品
100
AcDbCircle
 10
675.5
 20
1087.05
 30
0.0
 40
1.0
100
AcDbArc
 50
90.0
 51
180.0
  0
LINE
  5
1B5
330
1F
100
AcDbEntity
  8
部品
100
AcDbLine
 10
702.0
 20
1093.1
 30
0.0
 11
702.0
 21
1094.05
 31
0.0
  0
LINE
  5
1B6
330
1F
100
AcDbEntity
  8
部品
100
AcDbLine
 10
682.0
 20
1094.05
 30
0.0
 11
682.0
 21
1093.1
 31
0.0
  0
LINE
  5
1B7
330
1F
100
AcDbEntity
  8
部品
100
AcDbLine
 10
424.0
 20
1216.0
 30
0.0
 11
424.5
 21
1216.0
 31
0.0
  0
ARC
  5
1B8
330
1F
100
AcDbEntity
  8
部品
100
AcDbCircle
 10
419.2999999999997
 20
1210.0
 30
0.0
 40
0.5
100
AcDbArc
 50
270.0
 51
0.0
  0
LINE
  5
1B9
330
1F
100
AcDbEntity
  8
部品
100
AcDbLine
 10
701.0
 20
1095.05
 30
0.0
 11
683.0
 21
1095.05
 31
0.0
  0
LINE
  5
1BA
330
1F
100
AcDbEntity
  8
部品
100
AcDbLine
 10
424.0
 20
1215.0
 30
0.0
 11
424.5
 21
1215.0
 31
0.0
  0
ARC
  5
1BB
330
1F
100
AcDbEntity
  8
部品
100
AcDbCircle
 10
683.0
 20
1094.05
 30
0.0
 40
1.0
100
AcDbArc
 50
90.0
 51
180.0
  0
ARC
  5
1BC
330
1F
100
AcDbEntity
  8
部品
100
AcDbCircle
 10
701.0
 20
1094.05
 30
0.0
 40
1.0
100
AcDbArc
 50
0.0
 51
90.0
  0
ARC
  5
1BD
330
1F
100
AcDbEntity
  8
部品
100
AcDbCircle
 10
422.7999999999997
 20
1215.0
 30
0.0
 40
0.5
100
AcDbArc
 50
180.0
 51
270.0
  0
ARC
  5
1BE
330
1F
100
AcDbEntity
  8
部品
100
AcDbCircle
 10
703.0
 20
1091.6
 30
0.0
 40
1.5
100
AcDbArc
 50
0.0
 51
90.0
  0
ARC
  5
1BF
330
1F
100
AcDbEntity
  8
部品
100
AcDbCircle
 10
422.7999999999997
 20
1216.0
 30
0.0
 40
0.5
100
AcDbArc
 50
0.0
 51
90.0
  0
LINE
  5
1C0
330
1F
100
AcDbEntity
  8
部品
100
AcDbLine
 10
422.0
 20
1239.5
 30
0.0
 11
442.0
 21
1239.5
 31
0.0
  0
LINE
  5
1C1
330
1F
100
AcDbEntity
  8
部品
100
AcDbLine
 10
445.0
 20
1239.5
 30
0.0
 11
448.0
 21
1239.5
 31
0.0
  0
LINE
  5
1C2
330
1F
100
AcDbEntity
  8
部品
100
AcDbLine
 10
445.0
 20
1238.5
 30
0.0
 11
448.0
 21
1238.5
 31
0.0
  0
LINE
  5
1C3
330
1F
100
AcDbEntity
  8
部品
100
AcDbLine
 10
679.0
 20
1239.5
 30
0.0
 11
676.0
 21
1239.5
 31
0.0
  0
LINE
  5
1C4
330
1F
100
AcDbEntity
  8
部品
100
AcDbLine
 10
422.0
 20
1238.5
 30
0.0
 11
442.0
 21
1238.5
 31
0.0
  0
LINE
  5
1C5
330
1F
100
AcDbEntity
  8
部品
100
AcDbLine
 10
444.1999999999998
 20
1210.0
 30
0.0
 11
444.1999999999998
 21
1211.0
 31
0.0
  0
ARC
  5
1C6
330
1F
100
AcDbEntity
  8
部品
100
AcDbCircle
 10
444.6999999999998
 20
1211.0
 30
0.0
 40
0.5
100
AcDbArc
 50
0.0
 51
90.0
  0
LWPOLYLINE
  5
1C7
330
1F
100
AcDbEntity
  8
部品
100
AcDbPolyline
 90
        5
 70
     0
 43
0.0
 10
431.5
 20
1226.0
 10
431.5
 20
1231.0
 10
432.5
 20
1231.0
 10
432.5
 20
1226.0
 10
431.5
 20
1226.0
  0
LINE
  5
1C8
330
1F
100
AcDbEntity
  8
部品
100
AcDbLine
 10
445.1999999999998
 20
1211.0
 30
0.0
 11
445.1999999999998
 21
1210.0
 31
0.0
  0
LINE
  5
1C9
330
1F
100
AcDbEntity
  8
部品
100
AcDbLine
 10
704.1999999999998
 20
1211.0
 30
0.0
 11
704.0
 21
1211.0
 31
0.0
  0
LINE
  5
1CA
330
1F
100
AcDbEntity
  8
部品
100
AcDbLine
 10
423.0
 20
1095.05
 30
0.0
 11
441.0
 21
1095.05
 31
0.0
  0
LINE
  5
1CB
330
1F
100
AcDbEntity
  8
部品
100
AcDbLine
 10
609.5
 20
1085.05
 30
0.0
 11
514.5
 21
1085.05
 31
0.0
  0
LINE
  5
1CC
330
1F
100
AcDbEntity
  8
部品
100
AcDbLine
 10
619.0
 20
1085.55
 30
0.0
 11
610.0
 21
1085.55
 31
0.0
  0
LINE
  5
1CD
330
1F
100
AcDbEntity
  8
部品
100
AcDbLine
 10
505.0
 20
1085.55
 30
0.0
 11
514.0
 21
1085.55
 31
0.0
  0
ARC
  5
1CE
330
1F
100
AcDbEntity
  8
部品
100
AcDbCircle
 10
619.0
 20
1093.55
 30
0.0
 40
8.0
100
AcDbArc
 50
270.0
 51
90.0
  0
LINE
  5
1CF
330
1F
100
AcDbEntity
  8
部品
100
AcDbLine
 10
703.0
 20
1220.5
 30
0.0
 11
702.0
 21
1222.12
 31
0.0
  0
LINE
  5
1D0
330
1F
100
AcDbEntity
  8
部品
100
AcDbLine
 10
704.0
 20
1220.5
 30
0.0
 11
705.0
 21
1222.12
 31
0.0
  0
LINE
  5
1D1
330
1F
100
AcDbEntity
  8
部品
100
AcDbLine
 10
363.5
 20
1229.0
 30
0.0
 11
366.5
 21
1229.0
 31
0.0
  0
LINE
  5
1D2
330
1F
100
AcDbEntity
  8
部品
100
AcDbLine
 10
363.5
 20
1232.5
 30
0.0
 11
363.5
 21
1229.0
 31
0.0
  0
LINE
  5
1D3
330
1F
100
AcDbEntity
  8
部品
100
AcDbLine
 10
366.5
 20
1229.0
 30
0.0
 11
366.5
 21
1232.5
 31
0.0
  0
LINE
  5
1D4
330
1F
100
AcDbEntity
  8
部品
100
AcDbLine
 10
366.5
 20
1205.5
 30
0.0
 11
366.5
 21
1209.0
 31
0.0
  0
LINE
  5
1D5
330
1F
100
AcDbEntity
  8
部品
100
AcDbLine
 10
704.0
 20
1220.5
 30
0.0
 11
704.0
 21
1208.58
 31
0.0
  0
LINE
  5
1D6
330
1F
100
AcDbEntity
  8
部品
100
AcDbLine
 10
366.5
 20
1209.0
 30
0.0
 11
363.5
 21
1209.0
 31
0.0
  0
ARC
  5
1D7
330
1F
100
AcDbEntity
  8
部品
100
AcDbCircle
 10
365.0
 20
1232.5
 30
0.0
 40
1.5
100
AcDbArc
 50
90.0
 51
180.0
  0
LINE
  5
1D8
330
1F
100
AcDbEntity
  8
部品
100
AcDbLine
 10
363.5
 20
1209.0
 30
0.0
 11
363.5
 21
1205.5
 31
0.0
  0
ARC
  5
1D9
330
1F
100
AcDbEntity
  8
部品
100
AcDbCircle
 10
514.5012317819264
 20
1227.0
 30
0.0
 40
2.0
100
AcDbArc
 50
104.513960422695
 51
188.8129016377444
  0
ARC
  5
1DA
330
1F
100
AcDbEntity
  8
部品
100
AcDbCircle
 10
609.4987682180731
 20
1227.0
 30
0.0
 40
2.0
100
AcDbArc
 50
351.1870983622552
 51
75.48603957730589
  0
ARC
  5
1DB
330
1F
100
AcDbEntity
  8
部品
100
AcDbCircle
 10
509.6361200303309
 20
1173.528202990633
 30
0.0
 40
3.0
100
AcDbArc
 50
188.8129016377443
 51
260.115205828051
  0
ARC
  5
1DC
330
1F
100
AcDbEntity
  8
部品
100
AcDbCircle
 10
614.3638799696691
 20
1173.528202990633
 30
0.0
 40
3.0
100
AcDbArc
 50
279.884794171949
 51
351.1870983622557
  0
ARC
  5
1DD
330
1F
100
AcDbEntity
  8
部品
100
AcDbCircle
 10
562.0
 20
1474.030555555556
 30
0.0
 40
308.0305555555557
100
AcDbArc
 50
260.1152058280512
 51
279.8847941719488
  0
LWPOLYLINE
  5
1DE
330
1F
100
AcDbEntity
  8
部品
100
AcDbPolyline
 90
        5
 70
     0
 43
0.0
 10
761.0
 20
1209.0
 10
761.0
 20
1229.0
 10
757.0
 20
1229.0
 10
757.0
 20
1209.0
 10
761.0
 20
1209.0
  0
ARC
  5
1DF
330
1F
100
AcDbEntity
  8
部品
100
AcDbCircle
 10
759.0
 20
1205.5
 30
0.0
 40
1.5
100
AcDbArc
 50
270.0
 51
0.0
  0
LWPOLYLINE
  5
1E0
330
1F
100
AcDbEntity
  8
部品
100
AcDbPolyline
 90
        5
 70
     0
 43
0.0
 10
757.0
 20
1209.0
 10
757.0
 20
1229.0
 10
756.0
 20
1229.0
 10
756.0
 20
1209.0
 10
757.0
 20
1209.0
  0
ARC
  5
1E1
330
1F
100
AcDbEntity
  8
部品
100
AcDbCircle
 10
431.0
 20
1217.0
 30
0.0
 40
15.0
100
AcDbArc
 50
180.0
 51
242.207107201391
  0
LINE
  5
1E2
330
1F
100
AcDbEntity
  8
部品
100
AcDbLine
 10
419.7999999999997
 20
1211.0
 30
0.0
 11
420.0
 21
1211.0
 31
0.0
  0
LINE
  5
1E3
330
1F
100
AcDbEntity
  8
部品
100
AcDbLine
 10
419.7999999999997
 20
1210.0
 30
0.0
 11
420.0
 21
1210.0
 31
0.0
  0
LINE
  5
1E4
330
1F
100
AcDbEntity
  8
部品
100
AcDbLine
 10
421.0
 20
1211.0
 30
0.0
 11
423.7119999999995
 21
1211.0
 31
0.0
  0
LINE
  5
1E5
330
1F
100
AcDbEntity
  8
部品
100
AcDbLine
 10
756.0
 20
970.0499999999998
 30
0.0
 11
756.0
 21
930.2199999999998
 31
0.0
  0
LINE
  5
1E6
330
1F
100
AcDbEntity
  8
部品
100
AcDbLine
 10
757.0
 20
959.0499999999998
 30
0.0
 11
757.0
 21
970.0499999999998
 31
0.0
  0
LINE
  5
1E7
330
1F
100
AcDbEntity
  8
部品
100
AcDbLine
 10
756.0
 20
930.2199999999998
 30
0.0
 11
757.0
 21
930.2199999999998
 31
0.0
  0
LINE
  5
1E8
330
1F
100
AcDbEntity
  8
部品
100
AcDbLine
 10
757.0
 20
930.2199999999998
 30
0.0
 11
757.0
 21
951.0499999999998
 31
0.0
  0
ARC
  5
1E9
330
1F
100
AcDbEntity
  8
部品
100
AcDbCircle
 10
759.0
 20
959.0499999999998
 30
0.0
 40
2.0
100
AcDbArc
 50
180.0
 51
270.0
  0
LINE
  5
1EA
330
1F
100
AcDbEntity
  8
部品
100
AcDbLine
 10
756.5
 20
930.2199999999998
 30
0.0
 11
756.5
 21
970.0499999999998
 31
0.0
  0
ARC
  5
1EB
330
1F
100
AcDbEntity
  8
部品
100
AcDbCircle
 10
759.0
 20
959.0499999999998
 30
0.0
 40
2.5
100
AcDbArc
 50
180.0
 51
270.0
  0
LINE
  5
1EC
330
1F
100
AcDbEntity
  8
部品
100
AcDbLine
 10
439.5
 20
1216.0
 30
0.0
 11
440.0
 21
1216.0
 31
0.0
  0
LINE
  5
1ED
330
1F
100
AcDbEntity
  8
部品
100
AcDbLine
 10
682.2999999999997
 20
1216.0
 30
0.0
 11
682.2999999999997
 21
1215.0
 31
0.0
  0
LINE
  5
1EE
330
1F
100
AcDbEntity
  8
部品
100
AcDbLine
 10
439.5
 20
1215.0
 30
0.0
 11
440.0
 21
1215.0
 31
0.0
  0
LINE
  5
1EF
330
1F
100
AcDbEntity
  8
部品
100
AcDbLine
 10
440.6999999999998
 20
1215.0
 30
0.0
 11
440.6999999999998
 21
1216.0
 31
0.0
  0
LINE
  5
1F0
330
1F
100
AcDbEntity
  8
部品
100
AcDbLine
 10
418.0
 20
1179.65
 30
0.0
 11
415.0
 21
1169.65
 31
0.0
  0
ARC
  5
1F1
330
1F
100
AcDbEntity
  8
部品
100
AcDbCircle
 10
441.1999999999998
 20
1216.0
 30
0.0
 40
0.5
100
AcDbArc
 50
0.0
 51
90.0
  0
LINE
  5
1F2
330
1F
100
AcDbEntity
  8
部品
100
AcDbLine
 10
401.0
 20
1179.65
 30
0.0
 11
418.0
 21
1179.65
 31
0.0
  0
LINE
  5
1F3
330
1F
100
AcDbEntity
  8
部品
100
AcDbLine
 10
415.0
 20
1169.65
 30
0.0
 11
404.0
 21
1169.65
 31
0.0
  0
LINE
  5
1F4
330
1F
100
AcDbEntity
  8
部品
100
AcDbLine
 10
441.6999999999998
 20
1216.0
 30
0.0
 11
441.6999999999998
 21
1215.0
 31
0.0
  0
LINE
  5
1F5
330
1F
100
AcDbEntity
  8
部品
100
AcDbLine
 10
404.0
 20
1169.65
 30
0.0
 11
401.0
 21
1179.65
 31
0.0
  0
LINE
  5
1F6
330
1F
100
AcDbEntity
  8
部品
100
AcDbLine
 10
409.5
 20
776.8912259325613
 30
0.0
 11
426.5
 21
776.8912259325613
 31
0.0
  0
LINE
  5
1F7
330
1F
100
AcDbEntity
  8
部品
100
AcDbLine
 10
426.5
 20
776.8912259325613
 30
0.0
 11
423.5
 21
766.8912259325613
 31
0.0
  0
LINE
  5
1F8
330
1F
100
AcDbEntity
  8
部品
100
AcDbLine
 10
423.5
 20
766.8912259325613
 30
0.0
 11
412.5
 21
766.8912259325613
 31
0.0
  0
LINE
  5
1F9
330
1F
100
AcDbEntity
  8
部品
100
AcDbLine
 10
412.5
 20
766.8912259325613
 30
0.0
 11
409.5
 21
776.8912259325613
 31
0.0
  0
LINE
  5
1FA
330
1F
100
AcDbEntity
  8
部品
100
AcDbLine
 10
700.5
 20
766.8912259325613
 30
0.0
 11
711.5
 21
766.8912259325613
 31
0.0
  0
ARC
  5
1FB
330
1F
100
AcDbEntity
  8
部品
100
AcDbCircle
 10
681.0
 20
1091.6
 30
0.0
 40
1.5
100
AcDbArc
 50
90.0
 51
180.0
  0
LINE
  5
1FC
330
1F
100
AcDbEntity
  8
部品
100
AcDbLine
 10
449.5
 20
1087.05
 30
0.0
 11
449.5
 21
1085.05
 31
0.0
  0
LWPOLYLINE
  5
1FD
330
1F
100
AcDbEntity
  8
部品
100
AcDbPolyline
 90
        4
 70
     0
 43
0.0
 10
422.0
 20
1090.1
 10
422.0
 20
1088.05
 10
442.0
 20
1088.05
 10
442.0
 20
1090.1
  0
LINE
  5
1FE
330
1F
100
AcDbEntity
  8
部品
100
AcDbLine
 10
415.5
 20
1088.05
 30
0.0
 11
448.5
 21
1088.05
 31
0.0
  0
LINE
  5
1FF
330
1F
100
AcDbEntity
  8
部品
100
AcDbLine
 10
449.5
 20
1085.05
 30
0.0
 11
414.5
 21
1085.05
 31
0.0
  0
LINE
  5
200
330
1F
100
AcDbEntity
  8
部品
100
AcDbLine
 10
414.5
 20
1085.05
 30
0.0
 11
414.5
 21
1087.05
 31
0.0
  0
LINE
  5
201
330
1F
100
AcDbEntity
  8
部品
100
AcDbLine
 10
421.0
 20
1093.1
 30
0.0
 11
443.0
 21
1093.1
 31
0.0
  0
LINE
  5
202
330
1F
100
AcDbEntity
  8
部品
100
AcDbLine
 10
443.0
 20
1090.1
 30
0.0
 11
421.0
 21
1090.1
 31
0.0
  0
LINE
  5
203
330
1F
100
AcDbEntity
  8
部品
100
AcDbLine
 10
440.5
 20
1213.5
 30
0.0
 11
440.5
 21
1220.5
 31
0.0
  0
LINE
  5
204
330
1F
100
AcDbEntity
  8
部品
100
AcDbLine
 10
679.7999999999997
 20
1210.0
 30
0.0
 11
680.0
 21
1210.0
 31
0.0
  0
LINE
  5
205
330
1F
100
AcDbEntity
  8
部品
100
AcDbLine
 10
440.0
 20
1220.5
 30
0.0
 11
440.0
 21
1213.5
 31
0.0
  0
LINE
  5
206
330
1F
100
AcDbEntity
  8
部品
100
AcDbLine
 10
432.5
 20
1250.5
 30
0.0
 11
431.5
 21
1250.5
 31
0.0
  0
ARC
  5
207
330
1F
100
AcDbEntity
  8
部品
100
AcDbCircle
 10
679.2999999999997
 20
1210.0
 30
0.0
 40
0.5
100
AcDbArc
 50
180.0
 51
270.0
  0
LINE
  5
208
330
1F
100
AcDbEntity
  8
部品
100
AcDbLine
 10
440.5
 20
1239.5
 30
0.0
 11
440.5
 21
1242.5
 31
0.0
  0
LINE
  5
209
330
1F
100
AcDbEntity
  8
部品
100
AcDbLine
 10
440.5
 20
1220.5
 30
0.0
 11
440.5
 21
1238.5
 31
0.0
  0
ARC
  5
20A
330
1F
100
AcDbEntity
  8
部品
100
AcDbCircle
 10
679.2999999999997
 20
1211.0
 30
0.0
 40
0.5
100
AcDbArc
 50
0.0
 51
90.0
  0
LINE
  5
20B
330
1F
100
AcDbEntity
  8
部品
100
AcDbLine
 10
423.5
 20
1213.5
 30
0.0
 11
424.0
 21
1213.5
 31
0.0
  0
LINE
  5
20C
330
1F
100
AcDbEntity
  8
部品
100
AcDbLine
 10
676.0
 20
1239.5
 30
0.0
 11
676.0
 21
1247.0
 31
0.0
  0
LINE
  5
20D
330
1F
100
AcDbEntity
  8
部品
100
AcDbLine
 10
423.5
 20
1242.5
 30
0.0
 11
423.5
 21
1239.5
 31
0.0
  0
LINE
  5
20E
330
1F
100
AcDbEntity
  8
部品
100
AcDbLine
 10
424.0
 20
1213.5
 30
0.0
 11
424.0
 21
1220.5
 31
0.0
  0
LINE
  5
20F
330
1F
100
AcDbEntity
  8
部品
100
AcDbLine
 10
423.5
 20
1238.5
 30
0.0
 11
423.5
 21
1220.5
 31
0.0
  0
ARC
  5
210
330
1F
100
AcDbEntity
  8
部品
100
AcDbCircle
 10
679.2999999999997
 20
1210.0
 30
0.0
 40
0.5
100
AcDbArc
 50
270.0
 51
0.0
  0
LINE
  5
211
330
1F
100
AcDbEntity
  8
部品
100
AcDbLine
 10
420.0
 20
1208.58
 30
0.0
 11
421.0
 21
1208.58
 31
0.0
  0
LINE
  5
212
330
1F
100
AcDbEntity
  8
部品
100
AcDbLine
 10
423.5
 20
1220.5
 30
0.0
 11
423.5
 21
1213.5
 31
0.0
  0
LINE
  5
213
330
1F
100
AcDbEntity
  8
部品
100
AcDbLine
 10
700.0
 20
1215.0
 30
0.0
 11
699.5
 21
1215.0
 31
0.0
  0
ARC
  5
214
330
1F
100
AcDbEntity
  8
部品
100
AcDbCircle
 10
431.5
 20
1242.5
 30
0.0
 40
8.0
100
AcDbArc
 50
90.0
 51
180.0
  0
LINE
  5
215
330
1F
100
AcDbEntity
  8
部品
100
AcDbLine
 10
419.0
 20
1239.89
 30
0.0
 11
419.0
 21
1222.12
 31
0.0
  0
LINE
  5
216
330
1F
100
AcDbEntity
  8
部品
100
AcDbLine
 10
684.0
 20
1220.5
 30
0.0
 11
684.0
 21
1213.5
 31
0.0
  0
LINE
  5
217
330
1F
100
AcDbEntity
  8
部品
100
AcDbLine
 10
424.0
 20
1220.5
 30
0.0
 11
440.0
 21
1220.5
 31
0.0
  0
ARC
  5
218
330
1F
100
AcDbEntity
  8
部品
100
AcDbCircle
 10
701.1999999999998
 20
1215.0
 30
0.0
 40
0.5
100
AcDbArc
 50
270.0
 51
0.0
  0
LINE
  5
219
330
1F
100
AcDbEntity
  8
部品
100
AcDbLine
 10
421.0
 20
1208.58
 30
0.0
 11
421.0
 21
1220.5
 31
0.0
  0
ARC
  5
21A
330
1F
100
AcDbEntity
  8
部品
100
AcDbCircle
 10
432.5
 20
1242.5
 30
0.0
 40
8.0
100
AcDbArc
 50
0.0
 51
90.0
  0
LINE
  5
21B
330
1F
100
AcDbEntity
  8
部品
100
AcDbLine
 10
422.0
 20
1239.89
 30
0.0
 11
422.0
 21
1222.12
 31
0.0
  0
ARC
  5
21C
330
1F
100
AcDbEntity
  8
部品
100
AcDbCircle
 10
701.1999999999998
 20
1215.0
 30
0.0
 40
0.5
100
AcDbArc
 50
180.0
 51
270.0
  0
LINE
  5
21D
330
1F
100
AcDbEntity
  8
部品
100
AcDbLine
 10
703.0
 20
1211.0
 30
0.0
 11
700.2879999999996
 21
1211.0
 31
0.0
  0
ARC
  5
21E
330
1F
100
AcDbEntity
  8
部品
100
AcDbCircle
 10
701.1999999999998
 20
1216.0
 30
0.0
 40
0.5
100
AcDbArc
 50
90.0
 51
180.0
  0
LINE
  5
21F
330
1F
100
AcDbEntity
  8
部品
100
AcDbLine
 10
703.0
 20
1210.0
 30
0.0
 11
700.5
 21
1210.0
 31
0.0
  0
LINE
  5
220
330
1F
100
AcDbEntity
  8
部品
100
AcDbLine
 10
757.4099999999999
 20
954.9799999999998
 30
0.0
 11
757.4099999999999
 21
934.5499999999998
 31
0.0
  0
LINE
  5
221
330
1F
100
AcDbEntity
  8
部品
100
AcDbLine
 10
760.4099999999999
 20
934.5499999999998
 30
0.0
 11
760.4099999999999
 21
954.9799999999998
 31
0.0
  0
ARC
  5
222
330
1F
100
AcDbEntity
  8
部品
100
AcDbCircle
 10
703.0
 20
1091.6
 30
0.0
 40
1.5
100
AcDbArc
 50
270.0
 51
0.0
  0
ARC
  5
223
330
1F
100
AcDbEntity
  8
部品
100
AcDbCircle
 10
681.0
 20
1091.6
 30
0.0
 40
1.5
100
AcDbArc
 50
180.0
 51
270.0
  0
LINE
  5
224
330
1F
100
AcDbEntity
  8
部品
100
AcDbLine
 10
683.7024291497974
 20
1211.0
 30
0.0
 11
681.0
 21
1211.0
 31
0.0
  0
LINE
  5
225
330
1F
100
AcDbEntity
  8
部品
100
AcDbLine
 10
679.0
 20
1238.5
 30
0.0
 11
676.0
 21
1238.5
 31
0.0
  0
LINE
  5
226
330
1F
100
AcDbEntity
  8
部品
100
AcDbLine
 10
704.1999999999998
 20
1210.0
 30
0.0
 11
704.0
 21
1210.0
 31
0.0
  0
LINE
  5
227
330
1F
100
AcDbEntity
  8
部品
100
AcDbLine
 10
683.5
 20
1210.0
 30
0.0
 11
681.0
 21
1210.0
 31
0.0
  0
LINE
  5
228
330
1F
100
AcDbEntity
  8
部品
100
AcDbLine
 10
676.0333704529039
 20
1216.0
 30
0.0
 11
676.0
 21
1216.0
 31
0.0
  0
LINE
  5
229
330
1F
100
AcDbEntity
  8
部品
100
AcDbLine
 10
422.0
 20
1093.1
 30
0.0
 11
422.0
 21
1094.05
 31
0.0
  0
LINE
  5
22A
330
1F
100
AcDbEntity
  8
部品
100
AcDbLine
 10
442.0
 20
1094.05
 30
0.0
 11
442.0
 21
1093.1
 31
0.0
  0
LINE
  5
22B
330
1F
100
AcDbEntity
  8
部品
100
AcDbLine
 10
708.0
 20
1239.5
 30
0.0
 11
705.0
 21
1239.5
 31
0.0
  0
ARC
  5
22C
330
1F
100
AcDbEntity
  8
部品
100
AcDbCircle
 10
421.0
 20
1091.6
 30
0.0
 40
1.5
100
AcDbArc
 50
180.0
 51
270.0
  0
LINE
  5
22D
330
1F
100
AcDbEntity
  8
部品
100
AcDbLine
 10
679.7999999999997
 20
1210.0
 30
0.0
 11
679.7999999999997
 21
1211.0
 31
0.0
  0
ARC
  5
22E
330
1F
100
AcDbEntity
  8
部品
100
AcDbCircle
 10
423.0
 20
1094.05
 30
0.0
 40
1.0
100
AcDbArc
 50
90.0
 51
180.0
  0
LINE
  5
22F
330
1F
100
AcDbEntity
  8
部品
100
AcDbLine
 10
702.0
 20
1239.5
 30
0.0
 11
682.0
 21
1239.5
 31
0.0
  0
ARC
  5
230
330
1F
100
AcDbEntity
  8
部品
100
AcDbCircle
 10
421.0
 20
1091.6
 30
0.0
 40
1.5
100
AcDbArc
 50
90.0
 51
180.0
  0
ARC
  5
231
330
1F
100
AcDbEntity
  8
部品
100
AcDbCircle
 10
441.0
 20
1094.05
 30
0.0
 40
1.0
100
AcDbArc
 50
0.0
 51
90.0
  0
ARC
  5
232
330
1F
100
AcDbEntity
  8
部品
100
AcDbCircle
 10
443.0
 20
1091.6
 30
0.0
 40
1.5
100
AcDbArc
 50
0.0
 51
90.0
  0
LINE
  5
233
330
1F
100
AcDbEntity
  8
部品
100
AcDbLine
 10
619.0
 20
1101.55
 30
0.0
 11
505.0
 21
1101.55
 31
0.0
  0
ARC
  5
234
330
1F
100
AcDbEntity
  8
部品
100
AcDbCircle
 10
365.0
 20
1232.5
 30
0.0
 40
1.5
100
AcDbArc
 50
0.0
 51
90.0
  0
ARC
  5
235
330
1F
100
AcDbEntity
  8
部品
100
AcDbCircle
 10
365.0
 20
1205.5
 30
0.0
 40
1.5
100
AcDbArc
 50
270.0
 51
0.0
  0
ARC
  5
236
330
1F
100
AcDbEntity
  8
部品
100
AcDbCircle
 10
365.0
 20
1205.5
 30
0.0
 40
1.5
100
AcDbArc
 50
180.0
 51
270.0
  0
LINE
  5
237
330
1F
100
AcDbEntity
  8
部品
100
AcDbLine
 10
424.5
 20
1219.92
 30
0.0
 11
439.5
 21
1219.92
 31
0.0
  0
LINE
  5
238
330
1F
100
AcDbEntity
  8
部品
100
AcDbLine
 10
424.5
 20
1212.97
 30
0.0
 11
423.5
 21
1210.47
 31
0.0
  0
LINE
  5
239
330
1F
100
AcDbEntity
  8
部品
100
AcDbLine
 10
423.5
 20
1220.22
 30
0.0
 11
423.5
 21
1215.5
 31
0.0
  0
LINE
  5
23A
330
1F
100
AcDbEntity
  8
部品
100
AcDbLine
 10
439.5
 20
1212.97
 30
0.0
 11
440.5
 21
1210.5
 31
0.0
  0
LINE
  5
23B
330
1F
100
AcDbEntity
  8
部品
100
AcDbLine
 10
423.5
 20
1210.5
 30
0.0
 11
423.5
 21
1206.53
 31
0.0
  0
LINE
  5
23C
330
1F
100
AcDbEntity
  8
部品
100
AcDbLine
 10
440.5
 20
1206.53
 30
0.0
 11
440.5
 21
1210.5
 31
0.0
  0
LINE
  5
23D
330
1F
100
AcDbEntity
  8
部品
100
AcDbLine
 10
704.0
 20
1208.58
 30
0.0
 11
703.0
 21
1208.58
 31
0.0
  0
LINE
  5
23E
330
1F
100
AcDbEntity
  8
部品
100
AcDbLine
 10
684.5
 20
1215.0
 30
0.0
 11
684.0
 21
1215.0
 31
0.0
  0
LINE
  5
23F
330
1F
100
AcDbEntity
  8
部品
100
AcDbLine
 10
683.2999999999997
 20
1215.0
 30
0.0
 11
683.2999999999997
 21
1216.0
 31
0.0
  0
LINE
  5
240
330
1F
100
AcDbEntity
  8
部品
100
AcDbLine
 10
683.5
 20
1206.53
 30
0.0
 11
683.5
 21
1210.5
 31
0.0
  0
LINE
  5
241
330
1F
100
AcDbEntity
  8
部品
100
AcDbLine
 10
684.5
 20
1216.0
 30
0.0
 11
684.0
 21
1216.0
 31
0.0
  0
ARC
  5
242
330
1F
100
AcDbEntity
  8
部品
100
AcDbCircle
 10
682.7999999999997
 20
1216.0
 30
0.0
 40
0.5
100
AcDbArc
 50
90.0
 51
180.0
  0
LINE
  5
243
330
1F
100
AcDbEntity
  8
部品
100
AcDbLine
 10
440.5
 20
1210.0
 30
0.0
 11
443.0
 21
1210.0
 31
0.0
  0
LINE
  5
244
330
1F
100
AcDbEntity
  8
部品
100
AcDbLine
 10
423.2999999999997
 20
1216.0
 30
0.0
 11
423.5
 21
1216.0
 31
0.0
  0
LINE
  5
245
330
1F
100
AcDbEntity
  8
部品
100
AcDbLine
 10
440.2975708502022
 20
1211.0
 30
0.0
 11
443.0
 21
1211.0
 31
0.0
  0
LINE
  5
246
330
1F
100
AcDbEntity
  8
部品
100
AcDbLine
 10
447.9666295470956
 20
1216.0
 30
0.0
 11
448.0
 21
1216.0
 31
0.0
  0
LINE
  5
247
330
1F
100
AcDbEntity
  8
部品
100
AcDbLine
 10
447.8660687473184
 20
1215.0
 30
0.0
 11
448.0
 21
1215.0
 31
0.0
  0
LWPOLYLINE
  5
248
330
1F
100
AcDbEntity
  8
部品
100
AcDbPolyline
 90
        5
 70
     0
 43
0.0
 10
514.5
 20
1229.0
 10
514.5
 20
1239.0
 10
609.5
 20
1239.0
 10
609.5
 20
1229.0
 10
514.5
 20
1229.0
  0
LINE
  5
249
330
1F
100
AcDbEntity
  8
部品
100
AcDbLine
 10
433.0
 20
1262.0
 30
0.0
 11
431.0
 21
1262.0
 31
0.0
  0
ARC
  5
24A
330
1F
100
AcDbEntity
  8
部品
100
AcDbCircle
 10
431.0
 20
1247.0
 30
0.0
 40
15.0
100
AcDbArc
 50
90.0
 51
180.0
  0
ARC
  5
24B
330
1F
100
AcDbEntity
  8
部品
100
AcDbCircle
 10
433.0
 20
1247.0
 30
0.0
 40
15.0
100
AcDbArc
 50
0.0
 51
90.0
  0
ARC
  5
24C
330
1F
100
AcDbEntity
  8
部品
100
AcDbCircle
 10
693.0
 20
1247.0
 30
0.0
 40
15.0
100
AcDbArc
 50
0.0
 51
90.0
  0
ARC
  5
24D
330
1F
100
AcDbEntity
  8
部品
100
AcDbCircle
 10
704.6999999999998
 20
1210.0
 30
0.0
 40
0.5
100
AcDbArc
 50
180.0
 51
270.0
  0
LINE
  5
24E
330
1F
100
AcDbEntity
  8
部品
100
AcDbLine
 10
691.0
 20
1262.0
 30
0.0
 11
693.0
 21
1262.0
 31
0.0
  0
ARC
  5
24F
330
1F
100
AcDbEntity
  8
部品
100
AcDbCircle
 10
691.0
 20
1247.0
 30
0.0
 40
15.0
100
AcDbArc
 50
90.0
 51
180.0
  0
LINE
  5
250
330
1F
100
AcDbEntity
  8
部品
100
AcDbLine
 10
683.2999999999997
 20
1216.0
 30
0.0
 11
683.5
 21
1216.0
 31
0.0
  0
LWPOLYLINE
  5
251
330
1F
100
AcDbEntity
  8
部品
100
AcDbPolyline
 90
        5
 70
     0
 43
0.0
 10
687.0
 20
776.8912259325613
 10
687.0
 20
773.8912259325613
 10
652.0
 20
773.8912259325613
 10
652.0
 20
776.8912259325613
 10
687.0
 20
776.8912259325613
  0
LINE
  5
252
330
1F
100
AcDbEntity
  8
部品
100
AcDbLine
 10
421.0
 20
1210.0
 30
0.0
 11
423.5
 21
1210.0
 31
0.0
  0
LINE
  5
253
330
1F
100
AcDbEntity
  8
部品
100
AcDbLine
 10
418.7999999999997
 20
1211.0
 30
0.0
 11
418.7999999999997
 21
1210.0
 31
0.0
  0
LINE
  5
254
330
1F
100
AcDbEntity
  8
部品
100
AcDbLine
 10
419.7999999999997
 20
1210.0
 30
0.0
 11
419.7999999999997
 21
1211.0
 31
0.0
  0
ARC
  5
255
330
1F
100
AcDbEntity
  8
部品
100
AcDbCircle
 10
419.2999999999997
 20
1211.0
 30
0.0
 40
0.5
100
AcDbArc
 50
90.0
 51
180.0
  0
LINE
  5
256
330
1F
100
AcDbEntity
  8
部品
100
AcDbLine
 10
679.0
 20
1222.12
 30
0.0
 11
679.0
 21
1239.89
 31
0.0
  0
ARC
  5
257
330
1F
100
AcDbEntity
  8
部品
100
AcDbCircle
 10
692.5
 20
1206.53
 30
0.0
 40
8.0
100
AcDbArc
 50
270.0
 51
0.0
  0
LINE
  5
258
330
1F
100
AcDbEntity
  8
部品
100
AcDbLine
 10
692.5
 20
1198.53
 30
0.0
 11
691.5
 21
1198.53
 31
0.0
  0
ARC
  5
259
330
1F
100
AcDbEntity
  8
部品
100
AcDbCircle
 10
691.5
 20
1206.53
 30
0.0
 40
8.0
100
AcDbArc
 50
180.0
 51
270.0
  0
ARC
  5
25A
330
1F
100
AcDbEntity
  8
部品
100
AcDbCircle
 10
419.2999999999997
 20
1211.0
 30
0.0
 40
0.5
100
AcDbArc
 50
0.0
 51
90.0
  0
ARC
  5
25B
330
1F
100
AcDbEntity
  8
部品
100
AcDbCircle
 10
419.2999999999997
 20
1210.0
 30
0.0
 40
0.5
100
AcDbArc
 50
180.0
 51
270.0
  0
ARC
  5
25C
330
1F
100
AcDbEntity
  8
部品
100
AcDbCircle
 10
758.9099999999999
 20
954.9799999999998
 30
0.0
 40
1.5
100
AcDbArc
 50
0.0
 51
90.0
  0
ARC
  5
25D
330
1F
100
AcDbEntity
  8
部品
100
AcDbCircle
 10
758.9099999999999
 20
934.5499999999998
 30
0.0
 40
1.5
100
AcDbArc
 50
180.0
 51
270.0
  0
ARC
  5
25E
330
1F
100
AcDbEntity
  8
部品
100
AcDbCircle
 10
758.9099999999999
 20
954.9799999999998
 30
0.0
 40
1.5
100
AcDbArc
 50
90.0
 51
180.0
  0
ARC
  5
25F
330
1F
100
AcDbEntity
  8
部品
100
AcDbCircle
 10
759.0
 20
951.0499999999998
 30
0.0
 40
2.5
100
AcDbArc
 50
129.4941921179625
 51
180.0
  0
ARC
  5
260
330
1F
100
AcDbEntity
  8
部品
100
AcDbCircle
 10
758.9099999999999
 20
934.5499999999998
 30
0.0
 40
1.5
100
AcDbArc
 50
270.0
 51
0.0
  0
ARC
  5
261
330
1F
100
AcDbEntity
  8
部品
100
AcDbCircle
 10
759.0
 20
955.0499999999998
 30
0.0
 40
2.0
100
AcDbArc
 50
314.8295440501742
 51
90.0
  0
ARC
  5
262
330
1F
100
AcDbEntity
  8
部品
100
AcDbCircle
 10
759.0
 20
955.0499999999998
 30
0.0
 40
1.5
100
AcDbArc
 50
340.0515564111881
 51
90.0
  0
ARC
  5
263
330
1F
100
AcDbEntity
  8
部品
100
AcDbCircle
 10
759.0
 20
951.0499999999998
 30
0.0
 40
2.0
100
AcDbArc
 50
142.6552556459912
 51
180.0
  0
LINE
  5
264
330
1F
100
AcDbEntity
  8
部品
100
AcDbLine
 10
709.0
 20
1169.65
 30
0.0
 11
720.0
 21
1169.65
 31
0.0
  0
LINE
  5
265
330
1F
100
AcDbEntity
  8
部品
100
AcDbLine
 10
723.0
 20
1179.65
 30
0.0
 11
706.0
 21
1179.65
 31
0.0
  0
LINE
  5
266
330
1F
100
AcDbEntity
  8
部品
100
AcDbLine
 10
706.0
 20
1179.65
 30
0.0
 11
709.0
 21
1169.65
 31
0.0
  0
LINE
  5
267
330
1F
100
AcDbEntity
  8
部品
100
AcDbLine
 10
720.0
 20
1169.65
 30
0.0
 11
723.0
 21
1179.65
 31
0.0
  0
LINE
  5
268
330
1F
100
AcDbEntity
  8
部品
100
AcDbLine
 10
440.6999999999998
 20
1216.0
 30
0.0
 11
440.5
 21
1216.0
 31
0.0
  0
LINE
  5
269
330
1F
100
AcDbEntity
  8
部品
100
AcDbLine
 10
440.6999999999998
 20
1215.0
 30
0.0
 11
440.5
 21
1215.0
 31
0.0
  0
ARC
  5
26A
330
1F
100
AcDbEntity
  8
部品
100
AcDbCircle
 10
441.1999999999998
 20
1215.0
 30
0.0
 40
0.5
100
AcDbArc
 50
180.0
 51
270.0
  0
ARC
  5
26B
330
1F
100
AcDbEntity
  8
部品
100
AcDbCircle
 10
441.1999999999998
 20
1215.0
 30
0.0
 40
0.5
100
AcDbArc
 50
270.0
 51
0.0
  0
ARC
  5
26C
330
1F
100
AcDbEntity
  8
部品
100
AcDbCircle
 10
441.1999999999998
 20
1216.0
 30
0.0
 40
0.5
100
AcDbArc
 50
90.0
 51
180.0
  0
ARC
  5
26D
330
1F
100
AcDbEntity
  8
部品
100
AcDbCircle
 10
415.5
 20
1087.05
 30
0.0
 40
1.0
100
AcDbArc
 50
90.0
 51
180.0
  0
ARC
  5
26E
330
1F
100
AcDbEntity
  8
部品
100
AcDbCircle
 10
448.5
 20
1087.05
 30
0.0
 40
1.0
100
AcDbArc
 50
0.0
 51
90.0
  0
LINE
  5
26F
330
1F
100
AcDbEntity
  8
部品
100
AcDbLine
 10
708.0
 20
1247.0
 30
0.0
 11
708.0
 21
1239.5
 31
0.0
  0
LINE
  5
270
330
1F
100
AcDbEntity
  8
部品
100
AcDbLine
 10
610.0
 20
1239.0
 30
0.0
 11
616.0
 21
1239.0
 31
0.0
  0
LINE
  5
271
330
1F
100
AcDbEntity
  8
部品
100
AcDbLine
 10
676.0
 20
1217.0
 30
0.0
 11
676.0
 21
1238.5
 31
0.0
  0
LINE
  5
272
330
1F
100
AcDbEntity
  8
部品
100
AcDbLine
 10
708.0
 20
1238.5
 30
0.0
 11
708.0
 21
1217.0
 31
0.0
  0
LINE
  5
273
330
1F
100
AcDbEntity
  8
部品
100
AcDbLine
 10
684.0
 20
1213.5
 30
0.0
 11
683.5
 21
1213.5
 31
0.0
  0
LINE
  5
274
330
1F
100
AcDbEntity
  8
部品
100
AcDbLine
 10
683.5
 20
1213.5
 30
0.0
 11
683.5
 21
1220.5
 31
0.0
  0
LINE
  5
275
330
1F
100
AcDbEntity
  8
部品
100
AcDbLine
 10
705.1999999999998
 20
1211.0
 30
0.0
 11
705.1999999999998
 21
1210.0
 31
0.0
  0
ARC
  5
276
330
1F
100
AcDbEntity
  8
部品
100
AcDbCircle
 10
704.6999999999998
 20
1211.0
 30
0.0
 40
0.5
100
AcDbArc
 50
0.0
 51
90.0
  0
LINE
  5
277
330
1F
100
AcDbEntity
  8
部品
100
AcDbLine
 10
704.1999999999998
 20
1210.0
 30
0.0
 11
704.1999999999998
 21
1211.0
 31
0.0
  0
LINE
  5
278
330
1F
100
AcDbEntity
  8
部品
100
AcDbLine
 10
444.0
 20
1220.5
 30
0.0
 11
445.0
 21
1222.12
 31
0.0
  0
LINE
  5
279
330
1F
100
AcDbEntity
  8
部品
100
AcDbLine
 10
444.0
 20
1220.5
 30
0.0
 11
444.0
 21
1208.58
 31
0.0
  0
LINE
  5
27A
330
1F
100
AcDbEntity
  8
部品
100
AcDbLine
 10
443.0
 20
1208.58
 30
0.0
 11
443.0
 21
1220.5
 31
0.0
  0
LINE
  5
27B
330
1F
100
AcDbEntity
  8
部品
100
AcDbLine
 10
444.0
 20
1208.58
 30
0.0
 11
443.0
 21
1208.58
 31
0.0
  0
LINE
  5
27C
330
1F
100
AcDbEntity
  8
部品
100
AcDbLine
 10
443.0
 20
1220.5
 30
0.0
 11
442.0
 21
1222.12
 31
0.0
  0
LINE
  5
27D
330
1F
100
AcDbEntity
  8
部品
100
AcDbLine
 10
442.0
 20
1222.12
 30
0.0
 11
442.0
 21
1239.89
 31
0.0
  0
LINE
  5
27E
330
1F
100
AcDbEntity
  8
部品
100
AcDbLine
 10
445.0
 20
1222.12
 30
0.0
 11
445.0
 21
1239.89
 31
0.0
  0
LINE
  5
27F
330
1F
100
AcDbEntity
  8
部品
100
AcDbLine
 10
702.0
 20
1238.5
 30
0.0
 11
682.0
 21
1238.5
 31
0.0
  0
ARC
  5
280
330
1F
100
AcDbEntity
  8
部品
100
AcDbCircle
 10
443.0
 20
1091.6
 30
0.0
 40
1.5
100
AcDbArc
 50
270.0
 51
0.0
  0
LINE
  5
281
330
1F
100
AcDbEntity
  8
部品
100
AcDbLine
 10
708.0
 20
1238.5
 30
0.0
 11
705.0
 21
1238.5
 31
0.0
  0
ARC
  5
282
330
1F
100
AcDbEntity
  8
部品
100
AcDbCircle
 10
679.2999999999997
 20
1211.0
 30
0.0
 40
0.5
100
AcDbArc
 50
90.0
 51
180.0
  0
LINE
  5
283
330
1F
100
AcDbEntity
  8
部品
100
AcDbLine
 10
678.7999999999997
 20
1211.0
 30
0.0
 11
678.7999999999997
 21
1210.0
 31
0.0
  0
ARC
  5
284
330
1F
100
AcDbEntity
  8
部品
100
AcDbCircle
 10
701.1999999999998
 20
1216.0
 30
0.0
 40
0.5
100
AcDbArc
 50
0.0
 51
90.0
  0
LWPOLYLINE
  5
285
330
1F
100
AcDbEntity
  8
部品
100
AcDbPolyline
 90
        5
 70
     0
 43
0.0
 10
692.5
 20
1226.0
 10
692.5
 20
1231.0
 10
691.5
 20
1231.0
 10
691.5
 20
1226.0
 10
692.5
 20
1226.0
  0
LINE
  5
286
330
1F
100
AcDbEntity
  8
部品
100
AcDbLine
 10
700.6999999999998
 20
1215.0
 30
0.0
 11
700.6999999999998
 21
1216.0
 31
0.0
  0
LINE
  5
287
330
1F
100
AcDbEntity
  8
部品
100
AcDbLine
 10
440.5
 20
1215.5
 30
0.0
 11
440.5
 21
1220.22
 31
0.0
  0
LINE
  5
288
330
1F
100
AcDbEntity
  8
部品
100
AcDbLine
 10
424.5
 20
1212.97
 30
0.0
 11
424.5
 21
1219.92
 31
0.0
  0
LINE
  5
289
330
1F
100
AcDbEntity
  8
部品
100
AcDbLine
 10
705.0
 20
1239.89
 30
0.0
 11
705.0
 21
1222.12
 31
0.0
  0
LINE
  5
28A
330
1F
100
AcDbEntity
  8
部品
100
AcDbLine
 10
439.5
 20
1219.92
 30
0.0
 11
439.5
 21
1212.97
 31
0.0
  0
LINE
  5
28B
330
1F
100
AcDbEntity
  8
部品
100
AcDbLine
 10
703.0
 20
1208.58
 30
0.0
 11
703.0
 21
1220.5
 31
0.0
  0
LINE
  5
28C
330
1F
100
AcDbEntity
  8
部品
100
AcDbLine
 10
680.0
 20
1220.5
 30
0.0
 11
679.0
 21
1222.12
 31
0.0
  0
ARC
  5
28D
330
1F
100
AcDbEntity
  8
部品
100
AcDbCircle
 10
433.0
 20
1217.0
 30
0.0
 40
15.0
100
AcDbArc
 50
297.792892798609
 51
0.0
  0
ARC
  5
28E
330
1F
100
AcDbEntity
  8
部品
100
AcDbCircle
 10
505.0
 20
1093.55
 30
0.0
 40
8.0
100
AcDbArc
 50
90.0
 51
270.0
  0
LINE
  5
28F
330
1F
100
AcDbEntity
  8
部品
100
AcDbLine
 10
702.0
 20
1239.89
 30
0.0
 11
702.0
 21
1222.12
 31
0.0
  0
LWPOLYLINE
  5
290
330
1F
100
AcDbEntity
  8
部品
100
AcDbPolyline
 90
        4
 70
     0
 43
0.0
 10
702.0
 20
1090.1
 10
702.0
 20
1088.05
 10
682.0
 20
1088.05
 10
682.0
 20
1090.1
  0
LINE
  5
291
330
1F
100
AcDbEntity
  8
部品
100
AcDbLine
 10
680.0
 20
1220.5
 30
0.0
 11
680.0
 21
1208.58
 31
0.0
  0
LINE
  5
292
330
1F
100
AcDbEntity
  8
部品
100
AcDbLine
 10
708.5
 20
1088.05
 30
0.0
 11
675.5
 21
1088.05
 31
0.0
  0
LINE
  5
293
330
1F
100
AcDbEntity
  8
部品
100
AcDbLine
 10
680.0
 20
1208.58
 30
0.0
 11
681.0
 21
1208.58
 31
0.0
  0
LINE
  5
294
330
1F
100
AcDbEntity
  8
部品
100
AcDbLine
 10
674.5
 20
1085.05
 30
0.0
 11
709.5
 21
1085.05
 31
0.0
  0
LINE
  5
295
330
1F
100
AcDbEntity
  8
部品
100
AcDbLine
 10
709.5
 20
1085.05
 30
0.0
 11
709.5
 21
1087.05
 31
0.0
  0
LINE
  5
296
330
1F
100
AcDbEntity
  8
部品
100
AcDbLine
 10
674.5
 20
1087.05
 30
0.0
 11
674.5
 21
1085.05
 31
0.0
  0
LINE
  5
297
330
1F
100
AcDbEntity
  8
部品
100
AcDbLine
 10
703.0
 20
1093.1
 30
0.0
 11
681.0
 21
1093.1
 31
0.0
  0
LINE
  5
298
330
1F
100
AcDbEntity
  8
部品
100
AcDbLine
 10
691.5
 20
1250.5
 30
0.0
 11
692.5
 21
1250.5
 31
0.0
  0
CIRCLE
  5
299
330
1F
100
AcDbEntity
  8
部品
100
AcDbCircle
 10
432.0
 20
1228.5
 30
0.0
 40
3.5
  0
LINE
  5
29A
330
1F
100
AcDbEntity
  8
部品
100
AcDbLine
 10
683.5
 20
1239.5
 30
0.0
 11
683.5
 21
1242.5
 31
0.0
  0
LINE
  5
29B
330
1F
100
AcDbEntity
  8
部品
100
AcDbLine
 10
683.5
 20
1220.5
 30
0.0
 11
683.5
 21
1238.5
 31
0.0
  0
ARC
  5
29C
330
1F
100
AcDbEntity
  8
部品
100
AcDbCircle
 10
432.0
 20
1239.89
 30
0.0
 40
13.0
100
AcDbArc
 50
90.0
 51
180.0
  0
LINE
  5
29D
330
1F
100
AcDbEntity
  8
部品
100
AcDbLine
 10
700.5
 20
1242.5
 30
0.0
 11
700.5
 21
1239.5
 31
0.0
  0
LWPOLYLINE
  5
29E
330
1F
100
AcDbEntity
  8
部品
100
AcDbPolyline
 90
        5
 70
     0
 43
0.0
 10
367.0
 20
1209.0
 10
367.0
 20
1229.0
 10
368.0
 20
1229.0
 10
368.0
 20
1209.0
 10
367.0
 20
1209.0
  0
LWPOLYLINE
  5
29F
330
1F
100
AcDbEntity
  8
部品
100
AcDbPolyline
 90
        5
 70
     0
 43
0.0
 10
363.0
 20
1209.0
 10
363.0
 20
1229.0
 10
367.0
 20
1229.0
 10
367.0
 20
1209.0
 10
363.0
 20
1209.0
  0
LINE
  5
2A0
330
1F
100
AcDbEntity
  8
部品
100
AcDbLine
 10
700.5
 20
1213.5
 30
0.0
 11
700.0
 21
1213.5
 31
0.0
  0
LINE
  5
2A1
330
1F
100
AcDbEntity
  8
部品
100
AcDbLine
 10
700.5
 20
1238.5
 30
0.0
 11
700.5
 21
1220.5
 31
0.0
  0
CIRCLE
  5
2A2
330
1F
100
AcDbEntity
  8
部品
370
    25
100
AcDbCircle
 10
409.5
 20
1047.7
 30
0.0
 40
8.5
  0
CIRCLE
  5
2A3
330
1F
100
AcDbEntity
  8
部品
370
    25
100
AcDbCircle
 10
409.5
 20
1047.7
 30
0.0
 40
5.5
  0
CIRCLE
  5
2A4
330
1F
100
AcDbEntity
  8
部品
370
    25
100
AcDbCircle
 10
714.5
 20
1047.7
 30
0.0
 40
8.5
  0
CIRCLE
  5
2A5
330
1F
100
AcDbEntity
  8
部品
370
    25
100
AcDbCircle
 10
714.5
 20
1047.7
 30
0.0
 40
5.5
  0
CIRCLE
  5
2A6
330
1F
100
AcDbEntity
  8
部品
370
    25
100
AcDbCircle
 10
714.5
 20
817.78
 30
0.0
 40
8.5
  0
CIRCLE
  5
2A7
330
1F
100
AcDbEntity
  8
部品
370
    25
100
AcDbCircle
 10
714.5
 20
817.78
 30
0.0
 40
5.5
  0
CIRCLE
  5
2A8
330
1F
100
AcDbEntity
  8
部品
370
    25
100
AcDbCircle
 10
409.5
 20
817.78
 30
0.0
 40
8.5
  0
CIRCLE
  5
2A9
330
1F
100
AcDbEntity
  8
部品
370
    25
100
AcDbCircle
 10
409.5
 20
817.78
 30
0.0
 40
5.5
  0
LINE
  5
2AA
330
1F
100
AcDbEntity
  8
部品
100
AcDbLine
 10
356.9900000000001
 20
484.3
 30
0.0
 11
356.9900000000001
 21
463.8700000000002
 31
0.0
  0
LINE
  5
2AB
330
1F
100
AcDbEntity
  8
部品
100
AcDbLine
 10
359.9900000000001
 20
463.8700000000002
 30
0.0
 11
359.9900000000001
 21
484.3
 31
0.0
  0
ARC
  5
2AC
330
1F
100
AcDbEntity
  8
部品
100
AcDbCircle
 10
358.4900000000001
 20
463.8700000000002
 30
0.0
 40
1.5
100
AcDbArc
 50
180.0
 51
270.0
  0
ARC
  5
2AD
330
1F
100
AcDbEntity
  8
部品
100
AcDbCircle
 10
358.4900000000001
 20
484.3
 30
0.0
 40
1.5
100
AcDbArc
 50
0.0
 51
90.0
  0
ARC
  5
2AE
330
1F
100
AcDbEntity
  8
部品
100
AcDbCircle
 10
358.4900000000001
 20
463.8700000000002
 30
0.0
 40
1.5
100
AcDbArc
 50
270.0
 51
0.0
  0
ARC
  5
2AF
330
1F
100
AcDbEntity
  8
部品
100
AcDbCircle
 10
358.4900000000001
 20
484.3
 30
0.0
 40
1.5
100
AcDbArc
 50
90.0
 51
180.0
  0
ARC
  5
2B0
330
1F
100
AcDbEntity
  8
部品
100
AcDbCircle
 10
358.4
 20
467.8
 30
0.0
 40
2.5
100
AcDbArc
 50
309.4941921179625
 51
0.0
  0
ARC
  5
2B1
330
1F
100
AcDbEntity
  8
部品
100
AcDbCircle
 10
358.4
 20
463.8
 30
0.0
 40
2.0
100
AcDbArc
 50
134.8295440501742
 51
270.0
  0
ARC
  5
2B2
330
1F
100
AcDbEntity
  8
部品
100
AcDbCircle
 10
358.4
 20
467.8
 30
0.0
 40
2.0
100
AcDbArc
 50
322.6552556459911
 51
0.0
  0
ARC
  5
2B3
330
1F
100
AcDbEntity
  8
部品
100
AcDbCircle
 10
358.4
 20
463.8
 30
0.0
 40
1.5
100
AcDbArc
 50
160.0515564111881
 51
270.0
  0
ARC
  5
2B4
330
1F
100
AcDbEntity
  8
部品
100
AcDbCircle
 10
752.4
 20
459.8
 30
0.0
 40
2.5
100
AcDbArc
 50
90.0
 51
180.0
  0
LINE
  5
2B5
330
1F
100
AcDbEntity
  8
部品
100
AcDbLine
 10
750.8099999999998
 20
463.8700000000002
 30
0.0
 11
750.8099999999998
 21
484.3
 31
0.0
  0
LINE
  5
2B6
330
1F
100
AcDbEntity
  8
部品
100
AcDbLine
 10
753.8099999999998
 20
484.3
 30
0.0
 11
753.8099999999998
 21
463.8700000000002
 31
0.0
  0
LINE
  5
2B7
330
1F
100
AcDbEntity
  8
部品
100
AcDbLine
 10
749.9
 20
488.6299999999999
 30
0.0
 11
749.9
 21
448.8
 31
0.0
  0
ARC
  5
2B8
330
1F
100
AcDbEntity
  8
部品
100
AcDbCircle
 10
752.3099999999998
 20
463.8700000000002
 30
0.0
 40
1.5
100
AcDbArc
 50
270.0
 51
0.0
  0
ARC
  5
2B9
330
1F
100
AcDbEntity
  8
部品
100
AcDbCircle
 10
752.3099999999998
 20
484.3
 30
0.0
 40
1.5
100
AcDbArc
 50
90.0
 51
180.0
  0
ARC
  5
2BA
330
1F
100
AcDbEntity
  8
部品
100
AcDbCircle
 10
752.3099999999998
 20
484.3
 30
0.0
 40
1.5
100
AcDbArc
 50
0.0
 51
90.0
  0
ARC
  5
2BB
330
1F
100
AcDbEntity
  8
部品
100
AcDbCircle
 10
752.3099999999998
 20
463.8700000000002
 30
0.0
 40
1.5
100
AcDbArc
 50
180.0
 51
270.0
  0
ARC
  5
2BC
330
1F
100
AcDbEntity
  8
部品
100
AcDbCircle
 10
752.4
 20
467.8
 30
0.0
 40
2.5
100
AcDbArc
 50
180.0
 51
230.5058078820374
  0
ARC
  5
2BD
330
1F
100
AcDbEntity
  8
部品
100
AcDbCircle
 10
752.4
 20
463.8
 30
0.0
 40
2.0
100
AcDbArc
 50
270.0
 51
45.17045594982579
  0
ARC
  5
2BE
330
1F
100
AcDbEntity
  8
部品
100
AcDbCircle
 10
752.4
 20
467.8
 30
0.0
 40
2.0
100
AcDbArc
 50
180.0
 51
217.3447443540089
  0
ARC
  5
2BF
330
1F
100
AcDbEntity
  8
部品
100
AcDbCircle
 10
752.4
 20
463.8
 30
0.0
 40
1.5
100
AcDbArc
 50
270.0
 51
19.94844358881193
  0
LINE
  5
2C0
330
1F
100
AcDbEntity
  8
部品
100
AcDbLine
 10
750.4
 20
448.8
 30
0.0
 11
749.4
 21
448.8
 31
0.0
  0
LINE
  5
2C1
330
1F
100
AcDbEntity
  8
部品
100
AcDbLine
 10
749.4
 20
488.6299999999999
 30
0.0
 11
750.4
 21
488.6299999999999
 31
0.0
  0
LINE
  5
2C2
330
1F
100
AcDbEntity
  8
部品
100
AcDbLine
 10
749.4
 20
448.8
 30
0.0
 11
749.4
 21
488.6299999999999
 31
0.0
  0
LINE
  5
2C3
330
1F
100
AcDbEntity
  8
部品
100
AcDbLine
 10
750.4
 20
488.6299999999999
 30
0.0
 11
750.4
 21
467.8
 31
0.0
  0
LINE
  5
2C4
330
1F
100
AcDbEntity
  8
部品
100
AcDbLine
 10
750.4
 20
459.8
 30
0.0
 11
750.4
 21
448.8
 31
0.0
  0
ARC
  5
2C5
330
1F
100
AcDbEntity
  8
部品
100
AcDbCircle
 10
752.4
 20
459.8
 30
0.0
 40
2.0
100
AcDbArc
 50
90.0
 51
180.0
  0
LINE
  5
2C6
330
1F
100
AcDbEntity
  8
部品
100
AcDbLine
 10
507.9
 20
333.8
 30
0.0
 11
602.9
 21
333.8
 31
0.0
  0
LINE
  5
2C7
330
1F
100
AcDbEntity
  8
部品
100
AcDbLine
 10
507.9
 20
316.8
 30
0.0
 11
507.9
 21
333.8
 31
0.0
  0
LINE
  5
2C8
330
1F
100
AcDbEntity
  8
部品
100
AcDbLine
 10
602.9
 20
333.8
 30
0.0
 11
602.9
 21
316.8
 31
0.0
  0
LINE
  5
2C9
330
1F
100
AcDbEntity
  8
部品
100
AcDbLine
 10
498.4
 20
333.3
 30
0.0
 11
507.4
 21
333.3
 31
0.0
  0
LINE
  5
2CA
330
1F
100
AcDbEntity
  8
部品
100
AcDbLine
 10
507.4
 20
333.3
 30
0.0
 11
507.4
 21
317.3
 31
0.0
  0
ARC
  5
2CB
330
1F
100
AcDbEntity
  8
部品
100
AcDbCircle
 10
555.4
 20
159.1392857142858
 30
0.0
 40
164.6607142857141
100
AcDbArc
 50
73.23350303814127
 51
106.7664969618587
  0
LINE
  5
2CC
330
1F
100
AcDbEntity
  8
部品
100
AcDbLine
 10
507.4
 20
317.3
 30
0.0
 11
498.4
 21
317.3
 31
0.0
  0
LINE
  5
2CD
330
1F
100
AcDbEntity
  8
部品
100
AcDbLine
 10
612.4
 20
333.3
 30
0.0
 11
603.4
 21
333.3
 31
0.0
  0
LINE
  5
2CE
330
1F
100
AcDbEntity
  8
部品
100
AcDbLine
 10
603.4
 20
317.3
 30
0.0
 11
612.4
 21
317.3
 31
0.0
  0
ARC
  5
2CF
330
1F
100
AcDbEntity
  8
部品
100
AcDbCircle
 10
498.4
 20
325.3
 30
0.0
 40
8.0
100
AcDbArc
 50
90.0
 51
270.0
  0
LINE
  5
2D0
330
1F
100
AcDbEntity
  8
部品
100
AcDbLine
 10
603.4
 20
333.3
 30
0.0
 11
603.4
 21
317.3
 31
0.0
  0
LINE
  5
2D1
330
1F
100
AcDbEntity
  8
部品
100
AcDbLine
 10
509.5923665126182
 20
317.3
 30
0.0
 11
601.2076334873813
 21
317.3
 31
0.0
  0
LWPOLYLINE
  5
2D2
330
1F
100
AcDbEntity
  8
部品
100
AcDbPolyline
 90
        4
 70
     0
 43
0.0
 10
415.4
 20
328.7499999999998
 10
415.4
 20
330.8
 10
435.4
 20
330.8
 10
435.4
 20
328.7499999999998
  0
ARC
  5
2D3
330
1F
100
AcDbEntity
  8
部品
100
AcDbCircle
 10
612.4
 20
325.3
 30
0.0
 40
8.0
100
AcDbArc
 50
270.0
 51
90.0
  0
LINE
  5
2D4
330
1F
100
AcDbEntity
  8
部品
100
AcDbLine
 10
408.9
 20
330.8
 30
0.0
 11
441.9
 21
330.8
 31
0.0
  0
LINE
  5
2D5
330
1F
100
AcDbEntity
  8
部品
100
AcDbLine
 10
442.9
 20
333.8
 30
0.0
 11
407.9
 21
333.8
 31
0.0
  0
LINE
  5
2D6
330
1F
100
AcDbEntity
  8
部品
100
AcDbLine
 10
442.9
 20
331.8
 30
0.0
 11
442.9
 21
333.8
 31
0.0
  0
LINE
  5
2D7
330
1F
100
AcDbEntity
  8
部品
100
AcDbLine
 10
407.9
 20
333.8
 30
0.0
 11
407.9
 21
331.8
 31
0.0
  0
LINE
  5
2D8
330
1F
100
AcDbEntity
  8
部品
100
AcDbLine
 10
414.4
 20
325.7499999999998
 30
0.0
 11
436.4
 21
325.7499999999998
 31
0.0
  0
LINE
  5
2D9
330
1F
100
AcDbEntity
  8
部品
100
AcDbLine
 10
436.4
 20
328.7499999999998
 30
0.0
 11
414.4
 21
328.7499999999998
 31
0.0
  0
ARC
  5
2DA
330
1F
100
AcDbEntity
  8
部品
100
AcDbCircle
 10
441.9
 20
331.8
 30
0.0
 40
1.0
100
AcDbArc
 50
270.0
 51
0.0
  0
ARC
  5
2DB
330
1F
100
AcDbEntity
  8
部品
100
AcDbCircle
 10
408.9
 20
331.8
 30
0.0
 40
1.0
100
AcDbArc
 50
180.0
 51
270.0
  0
LINE
  5
2DC
330
1F
100
AcDbEntity
  8
部品
100
AcDbLine
 10
415.4
 20
325.7499999999998
 30
0.0
 11
415.4
 21
324.8
 31
0.0
  0
LINE
  5
2DD
330
1F
100
AcDbEntity
  8
部品
100
AcDbLine
 10
435.4
 20
324.8
 30
0.0
 11
435.4
 21
325.7499999999998
 31
0.0
  0
ARC
  5
2DE
330
1F
100
AcDbEntity
  8
部品
100
AcDbCircle
 10
416.4
 20
324.8
 30
0.0
 40
1.0
100
AcDbArc
 50
180.0
 51
270.0
  0
LINE
  5
2DF
330
1F
100
AcDbEntity
  8
部品
100
AcDbLine
 10
416.4
 20
323.8
 30
0.0
 11
434.4
 21
323.8
 31
0.0
  0
ARC
  5
2E0
330
1F
100
AcDbEntity
  8
部品
100
AcDbCircle
 10
434.4
 20
324.8
 30
0.0
 40
1.0
100
AcDbArc
 50
270.0
 51
0.0
  0
ARC
  5
2E1
330
1F
100
AcDbEntity
  8
部品
100
AcDbCircle
 10
414.4
 20
327.2499999999998
 30
0.0
 40
1.5
100
AcDbArc
 50
180.0
 51
270.0
  0
ARC
  5
2E2
330
1F
100
AcDbEntity
  8
部品
100
AcDbCircle
 10
436.4
 20
327.2499999999998
 30
0.0
 40
1.5
100
AcDbArc
 50
0.0
 51
90.0
  0
ARC
  5
2E3
330
1F
100
AcDbEntity
  8
部品
100
AcDbCircle
 10
414.4
 20
327.2499999999998
 30
0.0
 40
1.5
100
AcDbArc
 50
90.0
 51
180.0
  0
ARC
  5
2E4
330
1F
100
AcDbEntity
  8
部品
100
AcDbCircle
 10
436.4
 20
327.2499999999998
 30
0.0
 40
1.5
100
AcDbArc
 50
270.0
 51
0.0
  0
LINE
  5
2E5
330
1F
100
AcDbEntity
  8
部品
100
AcDbLine
 10
667.9
 20
331.8
 30
0.0
 11
667.9
 21
333.8
 31
0.0
  0
LINE
  5
2E6
330
1F
100
AcDbEntity
  8
部品
100
AcDbLine
 10
701.9
 20
330.8
 30
0.0
 11
668.9
 21
330.8
 31
0.0
  0
LWPOLYLINE
  5
2E7
330
1F
100
AcDbEntity
  8
部品
100
AcDbPolyline
 90
        4
 70
     0
 43
0.0
 10
695.4
 20
328.7499999999998
 10
695.4
 20
330.8
 10
675.4
 20
330.8
 10
675.4
 20
328.7499999999998
  0
LINE
  5
2E8
330
1F
100
AcDbEntity
  8
部品
100
AcDbLine
 10
667.9
 20
333.8
 30
0.0
 11
702.9
 21
333.8
 31
0.0
  0
LINE
  5
2E9
330
1F
100
AcDbEntity
  8
部品
100
AcDbLine
 10
696.4
 20
325.7499999999998
 30
0.0
 11
674.4
 21
325.7499999999998
 31
0.0
  0
LINE
  5
2EA
330
1F
100
AcDbEntity
  8
部品
100
AcDbLine
 10
702.9
 20
333.8
 30
0.0
 11
702.9
 21
331.8
 31
0.0
  0
LINE
  5
2EB
330
1F
100
AcDbEntity
  8
部品
100
AcDbLine
 10
674.4
 20
328.7499999999998
 30
0.0
 11
696.4
 21
328.7499999999998
 31
0.0
  0
ARC
  5
2EC
330
1F
100
AcDbEntity
  8
部品
100
AcDbCircle
 10
701.9
 20
331.8
 30
0.0
 40
1.0
100
AcDbArc
 50
270.0
 51
0.0
  0
ARC
  5
2ED
330
1F
100
AcDbEntity
  8
部品
100
AcDbCircle
 10
668.9
 20
331.8
 30
0.0
 40
1.0
100
AcDbArc
 50
180.0
 51
270.0
  0
LINE
  5
2EE
330
1F
100
AcDbEntity
  8
部品
100
AcDbLine
 10
695.4
 20
325.7499999999998
 30
0.0
 11
695.4
 21
324.8
 31
0.0
  0
LINE
  5
2EF
330
1F
100
AcDbEntity
  8
部品
100
AcDbLine
 10
694.4
 20
323.8
 30
0.0
 11
676.4
 21
323.8
 31
0.0
  0
LINE
  5
2F0
330
1F
100
AcDbEntity
  8
部品
100
AcDbLine
 10
675.4
 20
324.8
 30
0.0
 11
675.4
 21
325.7499999999998
 31
0.0
  0
ARC
  5
2F1
330
1F
100
AcDbEntity
  8
部品
100
AcDbCircle
 10
696.4
 20
327.2499999999998
 30
0.0
 40
1.5
100
AcDbArc
 50
0.0
 51
90.0
  0
ARC
  5
2F2
330
1F
100
AcDbEntity
  8
部品
100
AcDbCircle
 10
676.4
 20
324.8
 30
0.0
 40
1.0
100
AcDbArc
 50
180.0
 51
270.0
  0
ARC
  5
2F3
330
1F
100
AcDbEntity
  8
部品
100
AcDbCircle
 10
694.4
 20
324.8
 30
0.0
 40
1.0
100
AcDbArc
 50
270.0
 51
0.0
  0
ARC
  5
2F4
330
1F
100
AcDbEntity
  8
部品
100
AcDbCircle
 10
696.4
 20
327.2499999999998
 30
0.0
 40
1.5
100
AcDbArc
 50
270.0
 51
0.0
  0
ARC
  5
2F5
330
1F
100
AcDbEntity
  8
部品
100
AcDbCircle
 10
674.4
 20
327.2499999999998
 30
0.0
 40
1.5
100
AcDbArc
 50
180.0
 51
270.0
  0
ARC
  5
2F6
330
1F
100
AcDbEntity
  8
部品
100
AcDbCircle
 10
674.4
 20
327.2499999999998
 30
0.0
 40
1.5
100
AcDbArc
 50
90.0
 51
180.0
  0
LWPOLYLINE
  5
2F7
330
1F
100
AcDbEntity
  8
部品
100
AcDbPolyline
 90
        5
 70
     0
 43
0.0
 10
378.4253497152484
 20
583.3
 10
388.4253497152484
 20
583.3
 10
388.4253497152484
 20
585.8
 10
378.4253497152484
 20
585.8
 10
378.4253497152484
 20
583.3
  0
LINE
  5
2F8
330
1F
100
AcDbEntity
  8
部品
100
AcDbLine
 10
360.4
 20
448.8
 30
0.0
 11
361.4
 21
448.8
 31
0.0
  0
LINE
  5
2F9
330
1F
100
AcDbEntity
  8
部品
100
AcDbLine
 10
361.4
 20
448.8
 30
0.0
 11
361.4
 21
488.6299999999999
 31
0.0
  0
LINE
  5
2FA
330
1F
100
AcDbEntity
  8
部品
100
AcDbLine
 10
360.4
 20
459.8
 30
0.0
 11
360.4
 21
448.8
 31
0.0
  0
LINE
  5
2FB
330
1F
100
AcDbEntity
  8
部品
100
AcDbLine
 10
361.4
 20
488.6299999999999
 30
0.0
 11
360.4
 21
488.6299999999999
 31
0.0
  0
LINE
  5
2FC
330
1F
100
AcDbEntity
  8
部品
100
AcDbLine
 10
360.4
 20
488.6299999999999
 30
0.0
 11
360.4
 21
467.8
 31
0.0
  0
ARC
  5
2FD
330
1F
100
AcDbEntity
  8
部品
100
AcDbCircle
 10
358.4
 20
459.8
 30
0.0
 40
2.0
100
AcDbArc
 50
0.0
 51
90.0
  0
LINE
  5
2FE
330
1F
100
AcDbEntity
  8
部品
100
AcDbLine
 10
360.9
 20
488.6299999999999
 30
0.0
 11
360.9
 21
448.8
 31
0.0
  0
ARC
  5
2FF
330
1F
100
AcDbEntity
  8
部品
100
AcDbCircle
 10
358.4
 20
459.8
 30
0.0
 40
2.5
100
AcDbArc
 50
0.0
 51
90.0
  0
TEXT
  5
323
330
1F
100
AcDbEntity
  8
シルク
100
AcDbText
 10
375.1200561523438
 20
550.5881429964564
 30
0.0
 40
6.052420968387355
  1
電源
  7
HG丸ｺﾞｼｯｸM-PRO
 11
375.1200561523438
 21
556.6405639648438
 31
0.0
100
AcDbText
 73
     3
  0
LINE
  5
324
330
1F
100
AcDbEntity
  8
パネル
100
AcDbLine
 10
368.4346093750004
 20
583.3
 30
0.0
 11
368.4346093750004
 21
356.3
 31
0.0
  0
LINE
  5
325
330
1F
100
AcDbEntity
  8
パネル
100
AcDbLine
 10
368.4346093750004
 20
583.3
 30
0.0
 11
742.4346093750004
 21
583.3
 31
0.0
  0
CIRCLE
  5
326
330
1F
100
AcDbEntity
  8
パネル
370
    25
100
AcDbCircle
 10
411.5499999999994
 20
476.930964487968
 30
0.0
 40
1.75
  0
CIRCLE
  5
327
330
1F
100
AcDbEntity
  8
パネル
370
    25
100
AcDbCircle
 10
432.0799999999991
 20
419.4309644879675
 30
0.0
 40
2.25
  0
CIRCLE
  5
328
330
1F
100
AcDbEntity
  8
パネル
370
    25
100
AcDbCircle
 10
422.0799999999991
 20
419.4309644879675
 30
0.0
 40
2.25
  0
CIRCLE
  5
329
330
1F
100
AcDbEntity
  8
パネル
370
    25
100
AcDbCircle
 10
664.5499999999994
 20
362.4309644879675
 30
0.0
 40
1.75
  0
CIRCLE
  5
32A
330
1F
100
AcDbEntity
  8
パネル
370
    25
100
AcDbCircle
 10
471.0499999999994
 20
476.930964487968
 30
0.0
 40
1.75
  0
CIRCLE
  5
32B
330
1F
100
AcDbEntity
  8
パネル
370
    25
100
AcDbCircle
 10
600.0499999999994
 20
476.9309644879675
 30
0.0
 40
1.75
  0
CIRCLE
  5
32C
330
1F
100
AcDbEntity
  8
パネル
370
    25
100
AcDbCircle
 10
724.0499999999994
 20
476.930964487968
 30
0.0
 40
1.75
  0
CIRCLE
  5
32D
330
1F
100
AcDbEntity
  8
パネル
370
    25
100
AcDbCircle
 10
535.5499999999994
 20
476.930964487968
 30
0.0
 40
1.75
  0
CIRCLE
  5
32E
330
1F
100
AcDbEntity
  8
パネル
370
    25
100
AcDbCircle
 10
664.5499999999994
 20
476.930964487968
 30
0.0
 40
1.75
  0
CIRCLE
  5
32F
330
1F
100
AcDbEntity
  8
パネル
370
    25
100
AcDbCircle
 10
724.0499999999994
 20
362.4309644879675
 30
0.0
 40
1.75
  0
CIRCLE
  5
330
330
1F
100
AcDbEntity
  8
パネル
370
    25
100
AcDbCircle
 10
471.0499999999994
 20
362.4309644879675
 30
0.0
 40
1.75
  0
CIRCLE
  5
331
330
1F
100
AcDbEntity
  8
パネル
370
    25
100
AcDbCircle
 10
535.5499999999994
 20
362.4309644879675
 30
0.0
 40
1.75
  0
CIRCLE
  5
332
330
1F
100
AcDbEntity
  8
パネル
370
    25
100
AcDbCircle
 10
411.5499999999994
 20
362.4309644879675
 30
0.0
 40
1.75
  0
CIRCLE
  5
333
330
1F
100
AcDbEntity
  8
パネル
370
    25
100
AcDbCircle
 10
600.0499999999994
 20
362.4309644879675
 30
0.0
 40
1.75
  0
CIRCLE
  5
334
330
1F
100
AcDbEntity
  8
パネル
370
    25
100
AcDbCircle
 10
690.0799999999991
 20
419.4309644879675
 30
0.0
 40
2.25
  0
CIRCLE
  5
335
330
1F
100
AcDbEntity
  8
パネル
370
    25
100
AcDbCircle
 10
625.5799999999991
 20
419.4309644879675
 30
0.0
 40
2.25
  0
CIRCLE
  5
336
330
1F
100
AcDbEntity
  8
パネル
370
    25
100
AcDbCircle
 10
680.0799999999991
 20
419.4309644879675
 30
0.0
 40
2.25
  0
CIRCLE
  5
337
330
1F
100
AcDbEntity
  8
パネル
370
    25
100
AcDbCircle
 10
561.0799999999991
 20
419.4309644879675
 30
0.0
 40
2.25
  0
CIRCLE
  5
338
330
1F
100
AcDbEntity
  8
パネル
370
    25
100
AcDbCircle
 10
615.5799999999991
 20
419.4309644879675
 30
0.0
 40
2.25
  0
CIRCLE
  5
339
330
1F
100
AcDbEntity
  8
パネル
370
    25
100
AcDbCircle
 10
496.5799999999991
 20
419.4309644879675
 30
0.0
 40
2.25
  0
CIRCLE
  5
33A
330
1F
100
AcDbEntity
  8
パネル
370
    25
100
AcDbCircle
 10
551.0799999999991
 20
419.4309644879675
 30
0.0
 40
2.25
  0
CIRCLE
  5
33B
330
1F
100
AcDbEntity
  8
パネル
370
    25
100
AcDbCircle
 10
486.5799999999991
 20
419.4309644879675
 30
0.0
 40
2.25
  0
ARC
  5
33C
330
1F
100
AcDbEntity
  8
パネル
100
AcDbCircle
 10
727.4346093750004
 20
356.3
 30
0.0
 40
15.0
100
AcDbArc
 50
270.0
 51
0.0
  0
ARC
  5
33D
330
1F
100
AcDbEntity
  8
パネル
100
AcDbCircle
 10
383.4346093750004
 20
356.3
 30
0.0
 40
15.0
100
AcDbArc
 50
180.0
 51
270.0
  0
LINE
  5
33E
330
1F
100
AcDbEntity
  8
パネル
100
AcDbLine
 10
742.4346093750004
 20
356.3
 30
0.0
 11
742.4346093750004
 21
583.3
 31
0.0
  0
LINE
  5
33F
330
1F
100
AcDbEntity
  8
パネル
100
AcDbLine
 10
383.4346093750004
 20
341.3
 30
0.0
 11
727.4346093750004
 21
341.3
 31
0.0
  0
LINE
  5
340
330
1F
100
AcDbEntity
  8
底板
100
AcDbLine
 10
370.4000000000004
 20
583.3
 30
0.0
 11
740.4
 21
583.3
 31
0.0
  0
TEXT
  5
342
330
1F
100
AcDbEntity
  8
文字・寸法
100
AcDbText
 10
542.0
 20
237.4600523938969
 30
0.0
 40
11.53994760610312
  1
定     格
  7
MS Gothic
 11
542.0
 21
249.0
 31
0.0
100
AcDbText
 73
     3
  0
TEXT
  5
343
330
1F
100
AcDbEntity
  8
文字・寸法
100
AcDbText
 10
746.800048828125
 20
236.4594274292205
 30
0.0
 40
11.54057257077945
  1
備     考
  7
MS Gothic
 11
746.800048828125
 21
248.0
 31
0.0
100
AcDbText
 73
     3
  0
TEXT
  5
344
330
1F
100
AcDbEntity
  8
文字・寸法
100
AcDbText
 10
318.64990234375
 20
221.9606092847103
 30
0.0
 40
11.53939071528971
  1
外形サイズ
  7
MS Gothic
 11
318.64990234375
 21
233.5
 31
0.0
100
AcDbText
 73
     3
  0
TEXT
  5
345
330
1F
100
AcDbEntity
  8
文字・寸法
100
AcDbText
 10
329.89990234375
 20
207.5602294907962
 30
0.0
 40
11.5397766127194
  1
重   量
  7
MS Gothic
 11
329.89990234375
 21
219.1000061035156
 31
0.0
100
AcDbText
 73
     3
  0
TEXT
  5
346
330
1F
100
AcDbEntity
  8
文字・寸法
100
AcDbText
 10
329.89990234375
 20
192.4590078107313
 30
0.0
 40
11.54099218926874
  1
材   質
  7
MS Gothic
 11
329.89990234375
 21
204.0
 31
0.0
100
AcDbText
 73
     3
  0
TEXT
  5
347
330
1F
100
AcDbEntity
  8
文字・寸法
100
AcDbText
 10
326.14990234375
 20
177.4611379014341
 30
0.0
 40
11.53886209856595
  1
消費電力
  7
MS Gothic
 11
326.14990234375
 21
189.0
 31
0.0
100
AcDbText
 73
     3
  0
TEXT
  5
348
330
1F
100
AcDbEntity
  8
文字・寸法
100
AcDbText
 10
326.14990234375
 20
162.4603930911257
 30
0.0
 40
11.53960690887433
  1
入力電圧
  7
MS Gothic
 11
326.14990234375
 21
174.0
 31
0.0
100
AcDbText
 73
     3
  0
TEXT
  5
349
330
1F
100
AcDbEntity
  8
文字・寸法
100
AcDbText
 10
326.14990234375
 20
147.4612866620112
 30
0.0
 40
11.53871333798883
  1
充電表示
  7
MS Gothic
 11
326.14990234375
 21
159.0
 31
0.0
100
AcDbText
 73
     3
  0
TEXT
  5
34A
330
1F
100
AcDbEntity
  8
文字・寸法
100
AcDbText
 10
303.64990234375
 20
132.4600016823688
 30
0.0
 40
11.53999831763123
  1
受信機セット数
  7
MS Gothic
 11
303.64990234375
 21
144.0
 31
0.0
100
AcDbText
 73
     3
  0
TEXT
  5
34B
330
1F
100
AcDbEntity
  8
文字・寸法
100
AcDbText
 10
326.14990234375
 20
117.4584581205813
 30
0.0
 40
11.5415418794187
  1
使用電池
  7
MS Gothic
 11
326.14990234375
 21
129.0
 31
0.0
100
AcDbText
 73
     3
  0
TEXT
  5
34C
330
1F
100
AcDbEntity
  8
文字・寸法
100
AcDbText
 10
326.14990234375
 20
102.4604141520821
 30
0.0
 40
11.53958584791792
  1
充電時間
  7
MS Gothic
 11
326.14990234375
 21
114.0
 31
0.0
100
AcDbText
 73
     3
  0
TEXT
  5
34D
330
1F
100
AcDbEntity
  8
文字・寸法
100
AcDbText
 10
326.14990234375
 20
87.46039309112567
 30
0.0
 40
11.53960690887433
  1
充電回数
  7
MS Gothic
 11
326.14990234375
 21
99.0
 31
0.0
100
AcDbText
 73
     3
  0
TEXT
  5
34E
330
1F
100
AcDbEntity
  8
文字・寸法
100
AcDbText
 10
545.75
 20
208.6859515101463
 30
0.0
 40
10.31404848985371
  1
３．５㎏
  7
MS PGothic
 11
545.75
 21
219.0
 31
0.0
100
AcDbText
 73
     3
  0
TEXT
  5
34F
330
1F
100
AcDbEntity
  8
文字・寸法
100
AcDbText
 10
425.75
 20
192.4614013271148
 30
0.0
 40
11.53859867288522
  1
アルミ（外装）／アルミ及び緩衝材（内部）
  7
MS Gothic
 11
425.75
 21
204.0
 31
0.0
100
AcDbText
 73
     3
  0
TEXT
  5
350
330
1F
100
AcDbEntity
  8
文字・寸法
100
AcDbText
 10
542.0
 20
177.4607973654709
 30
0.0
 40
11.53920263452915
  1
１８Ｗ／h
  7
MS Gothic
 11
542.0
 21
189.0
 31
0.0
100
AcDbText
 73
     3
  0
TEXT
  5
351
330
1F
100
AcDbEntity
  8
文字・寸法
100
AcDbText
 10
530.75
 20
162.4611334706103
 30
0.0
 40
11.53886652938974
  1
ＡＣ１００Ｖ  50/60Hz
  7
MS Gothic
 11
530.75
 21
174.0
 31
0.0
100
AcDbText
 73
     3
  0
TEXT
  5
352
330
1F
100
AcDbEntity
  8
文字・寸法
100
AcDbText
 10
508.25
 20
147.4681750868717
 30
0.0
 40
11.53184017191735
  1
ＬＥＤインジケータ
  7
MS Gothic
 11
508.25
 21
159.0000152587891
 31
0.0
100
AcDbText
 73
     3
  0
TEXT
  5
353
330
1F
100
AcDbEntity
  8
文字・寸法
100
AcDbText
 10
530.75
 20
132.4616912699534
 30
0.0
 40
11.53830873004662
  1
１０台 (max)
  7
MS Gothic
 11
530.75
 21
144.0
 31
0.0
100
AcDbText
 73
     3
  0
TEXT
  5
354
330
1F
100
AcDbEntity
  8
文字・寸法
100
AcDbText
 10
515.75
 20
117.4604603715322
 30
0.0
 40
11.5395396284678
  1
ニッケル水素電池
  7
MS Gothic
 11
515.75
 21
129.0
 31
0.0
100
AcDbText
 73
     3
  0
TEXT
  5
355
330
1F
100
AcDbEntity
  8
文字・寸法
100
AcDbText
 10
530.75
 20
102.4602093206951
 30
0.0
 40
11.5397906793049
  1
約１～３時間
  7
MS Gothic
 11
530.75
 21
114.0
 31
0.0
100
AcDbText
 73
     3
  0
TEXT
  5
356
330
1F
100
AcDbEntity
  8
文字・寸法
100
AcDbText
 10
448.25
 20
87.46105665115422
 30
0.0
 40
11.53894334884578
  1
２００～３００回（程度）／電池寿命
  7
MS Gothic
 11
448.25
 21
99.0
 31
0.0
100
AcDbText
 73
     3
  0
TEXT
  5
357
330
1F
100
AcDbEntity
  8
文字・寸法
100
AcDbText
 10
735.550048828125
 20
206.9845571293033
 30
0.0
 40
11.51544287069667
  1
収納物は除く
  7
MS Gothic
 11
735.550048828125
 21
218.5
 31
0.0
100
AcDbText
 73
     3
  0
TEXT
  5
358
330
1F
100
AcDbEntity
  8
文字・寸法
100
AcDbText
 10
758.050048828125
 20
176.9604742420177
 30
0.0
 40
11.53952575798229
  1
充電時
  7
MS Gothic
 11
758.050048828125
 21
188.5
 31
0.0
100
AcDbText
 73
     3
  0
TEXT
  5
359
330
1F
100
AcDbEntity
  8
文字・寸法
100
AcDbText
 10
735.550048828125
 20
146.9612544308783
 30
0.0
 40
11.5387455691217
  1
充電中：点灯
  7
MS Gothic
 11
735.550048828125
 21
158.5
 31
0.0
100
AcDbText
 73
     3
  0
TEXT
  5
35A
330
1F
100
AcDbEntity
  8
文字・寸法
100
AcDbText
 10
750.550048828125
 20
131.9596962031657
 30
0.0
 40
11.5403037968343
  1
同時充電
  7
MS Gothic
 11
750.550048828125
 21
143.5
 31
0.0
100
AcDbText
 73
     3
  0
TEXT
  5
35B
330
1F
100
AcDbEntity
  8
文字・寸法
100
AcDbText
 10
735.550048828125
 20
116.9592759247028
 30
0.0
 40
11.54072407529723
  1
受信機内収納
  7
MS Gothic
 11
735.550048828125
 21
128.5
 31
0.0
100
AcDbText
 73
     3
  0
TEXT
  5
35C
330
1F
100
AcDbEntity
  8
文字・寸法
100
AcDbText
 10
743.050048828125
 20
101.9600637092968
 30
0.0
 40
11.53993629070316
  1
空～満充電
  7
MS Gothic
 11
743.050048828125
 21
113.5
 31
0.0
100
AcDbText
 73
     3
  0
TEXT
  5
35D
330
1F
100
AcDbEntity
  8
文字・寸法
100
AcDbText
 10
728.050048828125
 20
86.95950704225352
 30
0.0
 40
11.54049295774648
  1
使用環境による
  7
MS Gothic
 11
728.050048828125
 21
98.5
 31
0.0
100
AcDbText
 73
     3
  0
LINE
  5
35E
330
1F
100
AcDbEntity
  8
文字・寸法
370
    50
100
AcDbLine
 10
298.6500000000001
 20
249.0
 30
0.0
 11
844.3499999999999
 21
249.0
 31
0.0
  0
LINE
  5
35F
330
1F
100
AcDbEntity
  8
文字・寸法
370
    50
100
AcDbLine
 10
298.6500000000001
 20
234.0
 30
0.0
 11
844.3499999999999
 21
234.0
 31
0.0
  0
LINE
  5
360
330
1F
100
AcDbEntity
  8
文字・寸法
370
    50
100
AcDbLine
 10
298.6500000000001
 20
219.0
 30
0.0
 11
844.3499999999999
 21
219.0
 31
0.0
  0
LINE
  5
361
330
1F
100
AcDbEntity
  8
文字・寸法
370
    50
100
AcDbLine
 10
298.6500000000001
 20
204.0
 30
0.0
 11
844.3499999999999
 21
204.0
 31
0.0
  0
LINE
  5
362
330
1F
100
AcDbEntity
  8
文字・寸法
370
    50
100
AcDbLine
 10
298.6500000000001
 20
189.0
 30
0.0
 11
844.3499999999999
 21
189.0
 31
0.0
  0
LINE
  5
363
330
1F
100
AcDbEntity
  8
文字・寸法
370
    50
100
AcDbLine
 10
298.6500000000001
 20
174.0
 30
0.0
 11
844.3499999999999
 21
174.0
 31
0.0
  0
LINE
  5
364
330
1F
100
AcDbEntity
  8
文字・寸法
370
    50
100
AcDbLine
 10
298.6500000000001
 20
159.0
 30
0.0
 11
844.3499999999999
 21
159.0
 31
0.0
  0
LINE
  5
365
330
1F
100
AcDbEntity
  8
文字・寸法
370
    50
100
AcDbLine
 10
298.6500000000001
 20
144.0
 30
0.0
 11
844.3499999999999
 21
144.0
 31
0.0
  0
LINE
  5
366
330
1F
100
AcDbEntity
  8
文字・寸法
370
    50
100
AcDbLine
 10
298.6500000000001
 20
129.0
 30
0.0
 11
844.3499999999999
 21
129.0
 31
0.0
  0
LINE
  5
367
330
1F
100
AcDbEntity
  8
文字・寸法
370
    50
100
AcDbLine
 10
298.6500000000001
 20
114.0
 30
0.0
 11
844.3499999999999
 21
114.0
 31
0.0
  0
LINE
  5
368
330
1F
100
AcDbEntity
  8
文字・寸法
370
    50
100
AcDbLine
 10
298.6500000000001
 20
99.0
 30
0.0
 11
844.3499999999999
 21
99.0
 31
0.0
  0
LINE
  5
369
330
1F
100
AcDbEntity
  8
文字・寸法
370
    50
100
AcDbLine
 10
298.6500000000001
 20
84.0
 30
0.0
 11
844.3499999999999
 21
84.0
 31
0.0
  0
TEXT
  5
36A
330
1F
100
AcDbEntity
  8
文字・寸法
100
AcDbText
 10
168.0
 20
241.1156314168378
 30
0.0
 40
15.38436858316222
  1
≪定格≫
  7
MS Gothic
 11
168.0
 21
256.5
 31
0.0
100
AcDbText
 73
     3
  0
TEXT
  5
36C
330
1F
100
AcDbEntity
  8
文字・寸法
100
AcDbText
 10
400.492431640625
 20
1473.851279360351
 30
0.0
 40
50.6487206396494
  1
仕 様 書
  7
MS Gothic B
 11
400.492431640625
 21
1524.5
 31
0.0
100
AcDbText
 73
     3
  0
TEXT
  5
36D
330
1F
100
AcDbEntity
  8
文字・寸法
100
AcDbText
 10
139.573486328125
 20
1401.396175468736
 30
0.0
 40
25.11383429688925
  1
名称 磁気ループ装置用 専用受信機「充電／収納ＢＯＸ」
  7
MS Gothic B
 11
139.573486328125
 21
1426.510009765625
 31
0.0
100
AcDbText
 73
     3
  0
TEXT
  5
36E
330
1F
100
AcDbEntity
  8
文字・寸法
100
AcDbText
 10
140.526611328125
 20
1361.444550452936
 30
0.0
 40
25.15554720331378
  1
品番 ＡＴＭ／Ｒｘ－ＣＢ１０
  7
MS Gothic B
 11
140.526611328125
 21
1386.60009765625
 31
0.0
100
AcDbText
 73
     3
  0
DIMENSION
  5
375
330
1F
100
AcDbEntity
  8
文字・寸法
100
AcDbDimension
  2
*D2
 10
822.9012317819265
 20
766.8912259325613
 30
0.0
 11
814.9012317819265
 21
934.2206129662806
 31
0.0
 70
    32
  1
335
 71
     5
 42
-1.0
  3
Standard
100
AcDbAlignedDimension
 13
619.0
 23
1101.55
 33
0.0
 14
711.5
 24
766.8912259325613
 34
0.0
 50
90.0
100
AcDbRotatedDimension
1001
ACAD
1000
DSTYLE
1002
{
1070
    41
1040
7.5
1070
   289
1070
     1
1070
   342
1005
36F
1070
   271
1070
     2
1070
    44
1040
2.5
1070
    42
1040
0.5
1070
   147
1040
0.5
1070
    77
1070
     1
1070
   272
1070
     2
1070
   146
1040
0.5
1070
    73
1070
     0
1070
   174
1070
     1
1070
   172
1070
     1
1070
    74
1070
     0
1070
   283
1070
     0
1070
   340
1005
341
1070
   140
1040
10.3125
1070
   284
1070
     1
1070
    78
1070
     1
1070
   345
1005
15
1070
   346
1005
14
1002
}
1001
ACAD_DSTYLE_DIM_LINETYPE
1070
   380
1005
15
1001
ACAD_DSTYLE_DIM_EXT1_LINETYPE
1070
   381
1005
14
  0
TEXT
  5
37F
330
1F
100
AcDbEntity
  8
文字・寸法
100
AcDbText
 10
142.0
 20
647.115545515395
 30
0.0
 40
15.38445448460509
  1
≪内部配置≫
  7
MS Gothic
 11
142.0
 21
662.5
 31
0.0
100
AcDbText
 73
     3
  0
TEXT
  5
380
330
1F
100
AcDbEntity
  8
文字・寸法
100
AcDbText
 10
140.0
 20
1279.215497250704
 30
0.0
 40
15.38447833523375
  1
≪外観・寸法≫
  7
MS Gothic
 11
140.0
 21
1294.599975585938
 31
0.0
100
AcDbText
 73
     3
  0
DIMENSION
  5
381
330
1F
100
AcDbEntity
  8
文字・寸法
100
AcDbDimension
  2
*D3
 10
795.2012317819263
 20
776.0499999999998
 30
0.0
 11
787.2012317819263
 21
930.5499999999997
 31
0.0
 70
    32
  1
310
 71
     5
 42
-1.0
  3
Standard
100
AcDbAlignedDimension
 13
734.0
 23
1085.05
 33
0.0
 14
734.0
 24
776.0499999999998
 34
0.0
 50
90.0
100
AcDbRotatedDimension
1001
ACAD
1000
DSTYLE
1002
{
1070
    41
1040
7.5
1070
   289
1070
     1
1070
   342
1005
36F
1070
   271
1070
     2
1070
    44
1040
2.5
1070
    42
1040
0.5
1070
   147
1040
0.5
1070
    77
1070
     1
1070
   272
1070
     2
1070
   146
1040
0.5
1070
    73
1070
     0
1070
   174
1070
     1
1070
   172
1070
     1
1070
    74
1070
     0
1070
   283
1070
     0
1070
   340
1005
341
1070
   140
1040
10.3125
1070
   284
1070
     1
1070
    78
1070
     1
1070
   345
1005
15
1070
   346
1005
14
1002
}
1001
ACAD_DSTYLE_DIM_LINETYPE
1070
   380
1005
15
1001
ACAD_DSTYLE_DIM_EXT1_LINETYPE
1070
   381
1005
14
  0
DIMENSION
  5
38B
330
1F
100
AcDbEntity
  8
文字・寸法
100
AcDbDimension
  2
*D4
 10
755.9987460047805
 20
1134.9
 30
0.0
 11
562.1739758104941
 21
1142.9
 31
0.0
 70
    32
  1
390
 71
     5
 42
-1.0
  3
Standard
100
AcDbAlignedDimension
 13
368.3492056162077
 23
1197.095758389808
 33
0.0
 14
755.9987460047805
 24
1201.234891926513
 34
0.0
100
AcDbRotatedDimension
1001
ACAD
1000
DSTYLE
1002
{
1070
    41
1040
7.5
1070
   289
1070
     1
1070
   342
1005
36F
1070
   271
1070
     0
1070
    44
1040
2.5
1070
    42
1040
0.5
1070
   147
1040
0.5
1070
    77
1070
     1
1070
   272
1070
     2
1070
   146
1040
0.5
1070
    73
1070
     0
1070
   174
1070
     1
1070
   172
1070
     1
1070
    74
1070
     0
1070
   283
1070
     0
1070
   340
1005
341
1070
   140
1040
10.3125
1070
   284
1070
     1
1070
    78
1070
     1
1070
   345
1005
15
1070
   346
1005
14
1002
}
1001
ACAD_DSTYLE_DIM_LINETYPE
1070
   380
1005
15
1001
ACAD_DSTYLE_DIM_EXT1_LINETYPE
1070
   381
1005
14
  0
DIMENSION
  5
395
330
1F
100
AcDbEntity
  8
文字・寸法
100
AcDbDimension
  2
*D5
 10
809.6499999999996
 20
1289.0
 30
0.0
 11
801.6499999999996
 21
1229.325
 31
0.0
 70
    32
 71
     5
 42
-1.0
  3
Standard
100
AcDbAlignedDimension
 13
720.0
 23
1169.65
 33
0.0
 14
791.5499999999997
 24
1289.0
 34
0.0
 50
270.0
100
AcDbRotatedDimension
1001
ACAD
1000
DSTYLE
1002
{
1070
    41
1040
7.5
1070
   289
1070
     1
1070
   342
1005
36F
1070
   271
1070
     0
1070
    44
1040
2.5
1070
    42
1040
0.5
1070
   147
1040
0.5
1070
    77
1070
     1
1070
   272
1070
     2
1070
   146
1040
0.5
1070
    73
1070
     0
1070
   174
1070
     1
1070
   172
1070
     1
1070
    74
1070
     0
1070
   283
1070
     0
1070
   340
1005
341
1070
   140
1040
10.3125
1070
   284
1070
     1
1070
    78
1070
     1
1070
   345
1005
15
1070
   346
1005
14
1002
}
1001
ACAD_DSTYLE_DIM_LINETYPE
1070
   380
1005
15
1001
ACAD_DSTYLE_DIM_EXT1_LINETYPE
1070
   381
1005
14
  0
DIMENSION
  5
39F
330
1F
100
AcDbEntity
  8
文字・寸法
100
AcDbDimension
  2
*D6
 10
789.0499999999997
 20
1179.0
 30
0.0
 11
781.0499999999997
 21
1234.0
 31
0.0
 70
    32
  1
110
 71
     5
 42
-1.0
  3
Standard
100
AcDbAlignedDimension
 13
734.0
 23
1289.0
 33
0.0
 14
734.0
 24
1179.0
 34
0.0
 50
90.0
100
AcDbRotatedDimension
1001
ACAD
1000
DSTYLE
1002
{
1070
    41
1040
7.5
1070
   289
1070
     1
1070
   342
1005
36F
1070
   271
1070
     0
1070
    44
1040
2.5
1070
    42
1040
0.5
1070
   147
1040
0.5
1070
    77
1070
     1
1070
   272
1070
     2
1070
   146
1040
0.5
1070
    73
1070
     0
1070
   174
1070
     1
1070
   172
1070
     1
1070
    74
1070
     0
1070
   283
1070
     0
1070
   340
1005
341
1070
   140
1040
10.3125
1070
   284
1070
     1
1070
    78
1070
     1
1070
   345
1005
15
1070
   346
1005
14
1002
}
1001
ACAD_DSTYLE_DIM_LINETYPE
1070
   380
1005
15
1001
ACAD_DSTYLE_DIM_EXT1_LINETYPE
1070
   381
1005
14
  0
TEXT
  5
3A9
330
1F
100
AcDbEntity
  8
文字・寸法
100
AcDbText
 10
108.0
 20
20.52141492777618
 30
0.0
 40
11.53858644551483
  1
今後改良のため、予告なく変更することがあります。
  7
MS Gothic
 11
108.0
 21
32.06000137329102
 31
0.0
100
AcDbText
 73
     3
  0
TEXT
  5
3AA
330
1F
100
AcDbEntity
  8
文字・寸法
100
AcDbText
 10
898.400146484375
 20
19.02162010989972
 30
0.0
 40
11.53837744869403
  1
東理システム（株）
  7
MS Gothic
 11
898.400146484375
 21
30.55999755859375
 31
0.0
100
AcDbText
 73
     3
  0
TEXT
  5
3AB
330
1F
100
AcDbEntity
  8
文字・寸法
100
AcDbText
 10
896.75
 20
769.9606051654288
 30
0.0
 40
11.53939483457124
  1
単位 mm
  7
MS Gothic
 11
896.75
 21
781.5
 31
0.0
100
AcDbText
 73
     3
  0
TEXT
  5
3AC
330
1F
100
AcDbEntity
  8
文字・寸法
100
AcDbText
 10
493.25
 20
222.4617844352226
 30
0.0
 40
11.53821556477744
  1
３９０×３１０×１１０  (mm)
  7
MS Gothic
 11
493.25
 21
234.0
 31
0.0
100
AcDbText
 73
     3
  0
LINE
  5
3AD
330
1F
100
AcDbEntity
  8
文字・寸法
370
    50
100
AcDbLine
 10
298.6500000000001
 20
249.0
 30
0.0
 11
298.6500000000001
 21
84.0
 31
0.0
  0
LINE
  5
3AE
330
1F
100
AcDbEntity
  8
文字・寸法
370
    50
100
AcDbLine
 10
418.5500000000002
 20
249.0
 30
0.0
 11
418.5500000000002
 21
84.0
 31
0.0
  0
LINE
  5
3AF
330
1F
100
AcDbEntity
  8
文字・寸法
370
    50
100
AcDbLine
 10
725.75
 20
249.0
 30
0.0
 11
725.75
 21
84.0
 31
0.0
  0
LINE
  5
3B0
330
1F
100
AcDbEntity
  8
文字・寸法
370
    50
100
AcDbLine
 10
844.3499999999999
 20
249.0
 30
0.0
 11
844.3499999999999
 21
84.0
 31
0.0
  0
TEXT
  5
3B1
330
1F
100
AcDbEntity
  8
文字・寸法
100
AcDbText
 10
397.790014140887
 20
346.9939222328285
 30
0.0
 40
5.412155534342996
  1
ＡＴＭ／Ｒｘ－ＣＢ１０
 41
0.8
 51
15.0
  7
HG丸ｺﾞｼｯｸM-PRO
 72
     1
 11
429.2
 21
349.7
 31
0.0
100
AcDbText
 73
     2
  0
MTEXT
  5
3B2
330
1F
100
AcDbEntity
  8
文字・寸法
100
AcDbMText
 10
500.7
 20
616.6
 30
0.0
 40
3.4375
 41
19.53125
 71
     1
 72
     1
  1
{\fＭＳ ゴシック|b0|i0;ACｱﾀﾞﾌﾟﾀ}
  7
MS Gothic
 73
     1
 44
0.75
  0
TEXT
  5
3B3
330
1F
100
AcDbEntity
  8
文字・寸法
100
AcDbText
 10
574.4000000000003
 20
608.908046021397
 30
0.0
 40
7.691953978603018
  1
ＡＣアダプタ・イヤホーン収納部
  7
MS Gothic
 11
574.4000000000003
 21
616.6
 31
0.0
100
AcDbText
 73
     3
  0
HATCH
  5
3B4
330
1F
100
AcDbEntity
  8
補助線
 62
     3
100
AcDbHatch
 10
0.0
 20
0.0
 30
0.0
210
0.0
220
0.0
230
1.0
  2
SOLID
 70
     1
 71
     1
 91
        1
 92
        1
 93
        1
 72
     2
 10
411.5499999999994
 20
435.9309644879675
 40
2.5
 50
0.0
 51
360.0
 73
     1
 97
        0
 75
     1
 76
     1
 98
        1
 10
0.0
 20
0.0
  0
HATCH
  5
3B5
330
1F
100
AcDbEntity
  8
補助線
 62
     3
100
AcDbHatch
 10
0.0
 20
0.0
 30
0.0
210
0.0
220
0.0
230
1.0
  2
SOLID
 70
     1
 71
     1
 91
        1
 92
        1
 93
        1
 72
     2
 10
540.5499999999994
 20
436.0839644879687
 40
2.5
 50
0.0
 51
360.0
 73
     1
 97
        0
 75
     1
 76
     1
 98
        1
 10
0.0
 20
0.0
  0
HATCH
  5
3B6
330
1F
100
AcDbEntity
  8
補助線
 62
     3
100
AcDbHatch
 10
0.0
 20
0.0
 30
0.0
210
0.0
220
0.0
230
1.0
  2
SOLID
 70
     1
 71
     1
 91
        1
 92
        1
 93
        1
 72
     2
 10
476.0499999999994
 20
435.9309644879675
 40
2.5
 50
0.0
 51
360.0
 73
     1
 97
        0
 75
     1
 76
     1
 98
        1
 10
0.0
 20
0.0
  0
HATCH
  5
3B7
330
1F
100
AcDbEntity
  8
補助線
 62
     3
100
AcDbHatch
 10
0.0
 20
0.0
 30
0.0
210
0.0
220
0.0
230
1.0
  2
SOLID
 70
     1
 71
     1
 91
        1
 92
        1
 93
        1
 72
     2
 10
605.0499999999994
 20
436.0839644879687
 40
2.5
 50
0.0
 51
360.0
 73
     1
 97
        0
 75
     1
 76
     1
 98
        1
 10
0.0
 20
0.0
  0
HATCH
  5
3B8
330
1F
100
AcDbEntity
  8
補助線
 62
     3
100
AcDbHatch
 10
0.0
 20
0.0
 30
0.0
210
0.0
220
0.0
230
1.0
  2
SOLID
 70
     1
 71
     1
 91
        1
 92
        1
 93
        1
 72
     2
 10
669.5499999999994
 20
436.0839644879687
 40
2.5
 50
0.0
 51
360.0
 73
     1
 97
        0
 75
     1
 76
     1
 98
        1
 10
0.0
 20
0.0
  0
HATCH
  5
3B9
330
1F
100
AcDbEntity
  8
補助線
 62
     3
100
AcDbHatch
 10
0.0
 20
0.0
 30
0.0
210
0.0
220
0.0
230
1.0
  2
SOLID
 70
     1
 71
     1
 91
        1
 92
        1
 93
        1
 72
     2
 10
669.5499999999994
 20
550.5839644879691
 40
2.5
 50
0.0
 51
360.0
 73
     1
 97
        0
 75
     1
 76
     1
 98
        1
 10
0.0
 20
0.0
  0
HATCH
  5
3BA
330
1F
100
AcDbEntity
  8
補助線
 62
     3
100
AcDbHatch
 10
0.0
 20
0.0
 30
0.0
210
0.0
220
0.0
230
1.0
  2
SOLID
 70
     1
 71
     1
 91
        1
 92
        1
 93
        1
 72
     2
 10
605.0499999999994
 20
550.5839644879691
 40
2.5
 50
0.0
 51
360.0
 73
     1
 97
        0
 75
     1
 76
     1
 98
        1
 10
0.0
 20
0.0
  0
HATCH
  5
3BB
330
1F
100
AcDbEntity
  8
補助線
 62
     3
100
AcDbHatch
 10
0.0
 20
0.0
 30
0.0
210
0.0
220
0.0
230
1.0
  2
SOLID
 70
     1
 71
     1
 91
        1
 92
        1
 93
        1
 72
     2
 10
540.5499999999994
 20
550.5839644879691
 40
2.5
 50
0.0
 51
360.0
 73
     1
 97
        0
 75
     1
 76
     1
 98
        1
 10
0.0
 20
0.0
  0
HATCH
  5
3BC
330
1F
100
AcDbEntity
  8
補助線
 62
     3
100
AcDbHatch
 10
0.0
 20
0.0
 30
0.0
210
0.0
220
0.0
230
1.0
  2
SOLID
 70
     1
 71
     1
 91
        1
 92
        1
 93
        1
 72
     2
 10
476.0499999999994
 20
550.4309644879679
 40
2.5
 50
0.0
 51
360.0
 73
     1
 97
        0
 75
     1
 76
     1
 98
        1
 10
0.0
 20
0.0
  0
HATCH
  5
3BD
330
1F
100
AcDbEntity
  8
補助線
 62
     3
100
AcDbHatch
 10
0.0
 20
0.0
 30
0.0
210
0.0
220
0.0
230
1.0
  2
SOLID
 70
     1
 71
     1
 91
        1
 92
        1
 93
        1
 72
     2
 10
411.5499999999994
 20
550.4309644879679
 40
2.5
 50
0.0
 51
360.0
 73
     1
 97
        0
 75
     1
 76
     1
 98
        1
 10
0.0
 20
0.0
  0
LINE
  5
3BE
330
1F
100
AcDbEntity
  8
補助線
370
    25
100
AcDbLine
 10
699.45
 20
805.0
 30
0.0
 11
649.45
 21
805.0
 31
0.0
  0
LWPOLYLINE
  5
3BF
330
1F
100
AcDbEntity
  8
図面枠
  6
Continuous
 62
    30
370
    13
100
AcDbPolyline
 90
        5
 70
     0
 43
0.0
 10
6.0
 20
0.7999999999999972
 10
6.0
 20
1545.2
 10
1098.0
 20
1545.2
 10
1098.0
 20
0.7999999999999972
 10
6.0
 20
0.7999999999999972
  0
LWPOLYLINE
  5
3C0
330
1F
100
AcDbEntity
  8
太枠
100
AcDbPolyline
 90
        5
 70
     0
 43
0.0
 10
97.0
 20
36.16
 10
97.0
 20
1446.66
 10
1031.7
 20
1446.66
 10
1031.7
 20
36.16
 10
97.0
 20
36.16
  0
ARC
  5
3C1
330
1F
100
AcDbEntity
  8
受信機_上カバー
370
    18
100
AcDbCircle
 10
440.7949999999984
 20
552.0729644879682
 30
0.0
 40
0.675
100
AcDbArc
 50
90.0
 51
180.0
  0
LINE
  5
3C2
330
1F
100
AcDbEntity
  8
受信機_上カバー
370
    18
100
AcDbLine
 10
442.1449999999987
 20
495.116464487968
 30
0.0
 11
444.1699999999984
 21
495.116464487968
 31
0.0
  0
LINE
  5
3C3
330
1F
100
AcDbEntity
  8
受信機_上カバー
  6
Continuous
100
AcDbLine
 10
448.7699999999987
 20
556.1229644879679
 30
0.0
 11
455.6449999999987
 21
556.1229644879679
 31
0.0
  0
LINE
  5
3C4
330
1F
100
AcDbEntity
  8
受信機_上カバー
370
    18
100
AcDbLine
 10
442.1449999999987
 20
496.4664644879679
 30
0.0
 11
444.1699999999984
 21
496.4664644879679
 31
0.0
  0
ARC
  5
3C5
330
1F
100
AcDbEntity
  8
受信機_上カバー
  6
Continuous
100
AcDbCircle
 10
436.7449999999982
 20
518.3229644879682
 30
0.0
 40
1.35
100
AcDbArc
 50
270.0
 51
0.0
  0
ARC
  5
3C6
330
1F
100
AcDbEntity
  8
受信機_上カバー
370
    18
100
AcDbCircle
 10
451.9324999999982
 20
533.982964487968
 30
0.0
 40
0.405
100
AcDbArc
 50
180.0
 51
0.0
  0
ARC
  5
3C7
330
1F
100
AcDbEntity
  8
受信機_上カバー
370
    18
100
AcDbCircle
 10
445.8574999999984
 20
533.982964487968
 30
0.0
 40
0.405
100
AcDbArc
 50
180.0
 51
0.0
  0
ARC
  5
3C8
330
1F
100
AcDbEntity
  8
受信機_上カバー
  6
Continuous
100
AcDbCircle
 10
424.5949999999985
 20
552.0729644879682
 30
0.0
 40
1.35
100
AcDbArc
 50
90.0
 51
180.0
  0
ARC
  5
3C9
330
1F
100
AcDbEntity
  8
受信機_上カバー
370
    18
100
AcDbCircle
 10
447.8824999999989
 20
533.982964487968
 30
0.0
 40
0.405
100
AcDbArc
 50
180.0
 51
0.0
  0
ARC
  5
3CA
330
1F
100
AcDbEntity
  8
受信機_上カバー
  6
Continuous
100
AcDbCircle
 10
436.7449999999991
 20
552.0729644879682
 30
0.0
 40
1.35
100
AcDbArc
 50
0.0
 51
90.0
  0
ARC
  5
3CB
330
1F
100
AcDbEntity
  8
受信機_上カバー
370
    18
100
AcDbCircle
 10
443.8324999999987
 20
550.9929644879683
 30
0.0
 40
0.405
100
AcDbArc
 50
0.0
 51
180.0
  0
LINE
  5
3CC
330
1F
100
AcDbEntity
  8
受信機_上カバー
370
    18
100
AcDbLine
 10
442.1449999999987
 20
494.4414644879683
 30
0.0
 11
444.1699999999984
 21
494.4414644879683
 31
0.0
  0
LINE
  5
3CD
330
1F
100
AcDbEntity
  8
受信機_上カバー
  6
Continuous
100
AcDbLine
 10
440.7949999999984
 20
553.4229644879681
 30
0.0
 11
452.9449999999989
 21
553.4229644879681
 31
0.0
  0
ARC
  5
3CE
330
1F
100
AcDbEntity
  8
受信機_上カバー
  6
Continuous
100
AcDbCircle
 10
424.5949999999985
 20
518.3229644879682
 30
0.0
 40
1.35
100
AcDbArc
 50
180.0
 51
270.0
  0
ARC
  5
3CF
330
1F
100
AcDbEntity
  8
受信機_上カバー
370
    18
100
AcDbCircle
 10
424.5949999999985
 20
518.3229644879682
 30
0.0
 40
0.675
100
AcDbArc
 50
180.0
 51
270.0
  0
ARC
  5
3D0
330
1F
100
AcDbEntity
  8
受信機_上カバー
370
    18
100
AcDbCircle
 10
449.9074999999985
 20
533.982964487968
 30
0.0
 40
0.405
100
AcDbArc
 50
180.0
 51
0.0
  0
LINE
  5
3D1
330
1F
100
AcDbEntity
  8
受信機_上カバー
370
    18
100
AcDbLine
 10
446.262499999999
 20
550.9929644879683
 30
0.0
 11
446.262499999999
 21
533.982964487968
 31
0.0
  0
ARC
  5
3D2
330
1F
100
AcDbEntity
  8
受信機_上カバー
100
AcDbCircle
 10
421.8949999999987
 20
550.7229644879678
 30
0.0
 40
5.4
100
AcDbArc
 50
90.0
 51
180.0
  0
ARC
  5
3D3
330
1F
100
AcDbEntity
  8
受信機_上カバー
100
AcDbCircle
 10
455.6449999999987
 20
550.7229644879678
 30
0.0
 40
5.4
100
AcDbArc
 50
0.0
 51
90.0
  0
ARC
  5
3D4
330
1F
100
AcDbEntity
  8
受信機_上カバー
370
    18
100
AcDbCircle
 10
441.8074999999982
 20
533.982964487968
 30
0.0
 40
0.405
100
AcDbArc
 50
180.0
 51
0.0
  0
LINE
  5
3D5
330
1F
100
AcDbEntity
  8
受信機_上カバー
  6
Continuous
100
AcDbLine
 10
438.0949999999985
 20
552.0729644879682
 30
0.0
 11
438.0949999999985
 21
518.3229644879682
 31
0.0
  0
LINE
  5
3D6
330
1F
100
AcDbEntity
  8
受信機_上カバー
  6
Continuous
100
AcDbLine
 10
454.2949999999984
 20
552.0729644879682
 30
0.0
 11
454.2949999999984
 21
518.3229644879682
 31
0.0
  0
LINE
  5
3D7
330
1F
100
AcDbEntity
  8
受信機_上カバー
370
    18
100
AcDbLine
 10
444.5074999999989
 20
494.1039644879682
 30
0.0
 11
444.5074999999989
 21
496.803964487968
 31
0.0
  0
LINE
  5
3D8
330
1F
100
AcDbEntity
  8
受信機_上カバー
370
    18
100
AcDbLine
 10
449.5024999999988
 20
550.9929644879683
 30
0.0
 11
449.5024999999988
 21
533.982964487968
 31
0.0
  0
LINE
  5
3D9
330
1F
100
AcDbEntity
  8
受信機_上カバー
370
    18
100
AcDbLine
 10
442.1449999999987
 20
495.7914644879682
 30
0.0
 11
444.1699999999984
 21
495.7914644879682
 31
0.0
  0
LINE
  5
3DA
330
1F
100
AcDbEntity
  8
受信機_上カバー
370
    18
100
AcDbLine
 10
453.6199999999991
 20
552.0729644879682
 30
0.0
 11
453.6199999999982
 21
518.3229644879682
 31
0.0
  0
LINE
  5
3DB
330
1F
100
AcDbEntity
  8
受信機_上カバー
370
    18
100
AcDbLine
 10
451.5274999999984
 20
550.9929644879683
 30
0.0
 11
451.5274999999984
 21
533.982964487968
 31
0.0
  0
TEXT
  5
3DC
330
1F
100
AcDbEntity
  8
受信機_上カバー
100
AcDbText
 10
446.6201782226562
 20
494.1567100756096
 30
0.0
 40
1.558072639234133
  1
L
 41
1.000000000000004
  7
MS Gothic
 11
446.6201782226562
 21
495.7147827148438
 31
0.0
100
AcDbText
 73
     3
  0
ARC
  5
3DD
330
1F
100
AcDbEntity
  8
受信機_上カバー
370
    18
100
AcDbCircle
 10
452.9449999999989
 20
518.3229644879682
 30
0.0
 40
0.675
100
AcDbArc
 50
270.0
 51
0.0
  0
ARC
  5
3DE
330
1F
100
AcDbEntity
  8
受信機_上カバー
370
    18
100
AcDbCircle
 10
440.7949999999984
 20
518.3229644879682
 30
0.0
 40
0.675
100
AcDbArc
 50
180.0
 51
270.0
  0
LINE
  5
3DF
330
1F
100
AcDbEntity
  8
受信機_上カバー
370
    18
100
AcDbLine
 10
444.8449999999985
 20
500.421964487968
 30
0.0
 11
441.4699999999985
 21
500.421964487968
 31
0.0
  0
ARC
  5
3E0
330
1F
100
AcDbEntity
  8
受信機_上カバー
370
    18
100
AcDbCircle
 10
436.7449999999991
 20
552.0729644879682
 30
0.0
 40
0.675
100
AcDbArc
 50
0.0
 51
90.0
  0
ARC
  5
3E1
330
1F
100
AcDbEntity
  8
受信機_上カバー
370
    18
100
AcDbCircle
 10
436.7449999999982
 20
518.3229644879682
 30
0.0
 40
0.675
100
AcDbArc
 50
270.0
 51
0.0
  0
LINE
  5
3E2
330
1F
100
AcDbEntity
  8
受信機_上カバー
370
    18
100
AcDbLine
 10
442.2124999999988
 20
550.9929644879683
 30
0.0
 11
442.2124999999988
 21
533.982964487968
 31
0.0
  0
LINE
  5
3E3
330
1F
100
AcDbEntity
  8
受信機_上カバー
370
    18
100
AcDbLine
 10
441.4024999999984
 20
550.9929644879683
 30
0.0
 11
441.4024999999984
 21
533.982964487968
 31
0.0
  0
TEXT
  5
3E4
330
1F
100
AcDbEntity
  8
受信機_上カバー
100
AcDbText
 10
431.5610961914062
 20
502.8796849059584
 30
0.0
 40
1.038466949510322
  1
TONE ADJUSTMENT
 41
0.9999996605042548
  7
MS Gothic
 11
431.5610961914062
 21
503.9181518554688
 31
0.0
100
AcDbText
 73
     3
  0
ARC
  5
3E5
330
1F
100
AcDbEntity
  8
受信機_上カバー
  6
Continuous
100
AcDbCircle
 10
452.9449999999989
 20
552.0729644879682
 30
0.0
 40
1.35
100
AcDbArc
 50
0.0
 51
90.0
  0
LINE
  5
3E6
330
1F
100
AcDbEntity
  8
受信機_上カバー
370
    18
100
AcDbLine
 10
424.5949999999985
 20
517.647964487968
 30
0.0
 11
436.7449999999982
 21
517.647964487968
 31
0.0
  0
LINE
  5
3E7
330
1F
100
AcDbEntity
  8
受信機_上カバー
370
    18
100
AcDbLine
 10
452.3374999999988
 20
550.9929644879683
 30
0.0
 11
452.3374999999988
 21
533.982964487968
 31
0.0
  0
LINE
  5
3E8
330
1F
100
AcDbEntity
  8
受信機_上カバー
370
    18
100
AcDbLine
 10
441.8074999999982
 20
496.803964487968
 30
0.0
 11
441.8074999999982
 21
494.1039644879682
 31
0.0
  0
ARC
  5
3E9
330
1F
100
AcDbEntity
  8
受信機_上カバー
370
    18
100
AcDbCircle
 10
449.9074999999985
 20
550.9929644879683
 30
0.0
 40
0.405
100
AcDbArc
 50
0.0
 51
180.0
  0
LINE
  5
3EA
330
1F
100
AcDbEntity
  8
受信機_上カバー
370
    18
100
AcDbLine
 10
450.3124999999992
 20
550.9929644879683
 30
0.0
 11
450.3124999999983
 21
533.982964487968
 31
0.0
  0
LINE
  5
3EB
330
1F
100
AcDbEntity
  8
受信機_上カバー
370
    18
100
AcDbLine
 10
444.2374999999985
 20
550.9929644879683
 30
0.0
 11
444.2374999999985
 21
533.982964487968
 31
0.0
  0
LINE
  5
3EC
330
1F
100
AcDbEntity
  8
受信機_上カバー
370
    18
100
AcDbLine
 10
440.1199999999991
 20
552.0729644879682
 30
0.0
 11
440.1199999999982
 21
518.3229644879682
 31
0.0
  0
ARC
  5
3ED
330
1F
100
AcDbEntity
  8
受信機_上カバー
370
    18
100
AcDbCircle
 10
441.8074999999991
 20
550.9929644879683
 30
0.0
 40
0.405
100
AcDbArc
 50
0.0
 51
180.0
  0
ARC
  5
3EE
330
1F
100
AcDbEntity
  8
受信機_上カバー
370
    18
100
AcDbCircle
 10
424.5949999999985
 20
552.0729644879682
 30
0.0
 40
0.675
100
AcDbArc
 50
90.0
 51
180.0
  0
LINE
  5
3EF
330
1F
100
AcDbEntity
  8
受信機_上カバー
100
AcDbLine
 10
461.0449999999984
 20
550.7229644879678
 30
0.0
 11
461.0449999999984
 21
487.2729644879681
 31
0.0
  0
ARC
  5
3F0
330
1F
100
AcDbEntity
  8
受信機_上カバー
  6
Continuous
100
AcDbCircle
 10
440.7949999999984
 20
518.3229644879682
 30
0.0
 40
1.35
100
AcDbArc
 50
180.0
 51
270.0
  0
LINE
  5
3F1
330
1F
100
AcDbEntity
  8
受信機_上カバー
100
AcDbLine
 10
416.4949999999991
 20
550.7229644879678
 30
0.0
 11
416.4949999999982
 21
487.2729644879681
 31
0.0
  0
ARC
  5
3F2
330
1F
100
AcDbEntity
  8
受信機_上カバー
  6
Continuous
100
AcDbCircle
 10
452.9449999999989
 20
518.3229644879682
 30
0.0
 40
1.35
100
AcDbArc
 50
270.0
 51
0.0
  0
LINE
  5
3F3
330
1F
100
AcDbEntity
  8
受信機_上カバー
  6
Continuous
100
AcDbLine
 10
424.5949999999985
 20
553.4229644879681
 30
0.0
 11
436.7449999999991
 21
553.4229644879681
 31
0.0
  0
LINE
  5
3F4
330
1F
100
AcDbEntity
  8
受信機_上カバー
370
    18
100
AcDbLine
 10
441.4699999999985
 20
500.421964487968
 30
0.0
 11
441.4699999999985
 21
493.671964487968
 31
0.0
  0
LINE
  5
3F5
330
1F
100
AcDbEntity
  8
受信機_上カバー
370
    18
100
AcDbLine
 10
437.4199999999984
 20
552.0729644879682
 30
0.0
 11
437.4199999999984
 21
518.3229644879682
 31
0.0
  0
ARC
  5
3F6
330
1F
100
AcDbEntity
  8
受信機_上カバー
370
    18
100
AcDbCircle
 10
452.9449999999989
 20
552.0729644879682
 30
0.0
 40
0.675
100
AcDbArc
 50
0.0
 51
90.0
  0
LINE
  5
3F7
330
1F
100
AcDbEntity
  8
受信機_上カバー
370
    18
100
AcDbLine
 10
423.9199999999984
 20
552.0729644879682
 30
0.0
 11
423.9199999999984
 21
518.3229644879682
 31
0.0
  0
LINE
  5
3F8
330
1F
100
AcDbEntity
  8
受信機_上カバー
370
    18
100
AcDbLine
 10
444.5074999999989
 20
496.803964487968
 30
0.0
 11
441.8074999999982
 21
496.803964487968
 31
0.0
  0
LINE
  5
3F9
330
1F
100
AcDbEntity
  8
受信機_上カバー
370
    18
100
AcDbLine
 10
444.8449999999985
 20
493.671964487968
 30
0.0
 11
444.8449999999985
 21
500.421964487968
 31
0.0
  0
LINE
  5
3FA
330
1F
100
AcDbEntity
  8
受信機_上カバー
370
    18
100
AcDbLine
 10
440.7949999999984
 20
517.647964487968
 30
0.0
 11
452.9449999999989
 21
517.647964487968
 31
0.0
  0
ARC
  5
3FB
330
1F
100
AcDbEntity
  8
受信機_上カバー
370
    18
100
AcDbCircle
 10
443.8324999999987
 20
533.982964487968
 30
0.0
 40
0.405
100
AcDbArc
 50
180.0
 51
0.0
  0
LINE
  5
3FC
330
1F
100
AcDbEntity
  8
受信機_上カバー
370
    18
100
AcDbLine
 10
424.5949999999985
 20
552.7479644879679
 30
0.0
 11
436.7449999999991
 21
552.7479644879679
 31
0.0
  0
LINE
  5
3FD
330
1F
100
AcDbEntity
  8
受信機_上カバー
  6
Continuous
100
AcDbLine
 10
439.4449999999989
 20
552.0729644879682
 30
0.0
 11
439.4449999999989
 21
518.3229644879682
 31
0.0
  0
LINE
  5
3FE
330
1F
100
AcDbEntity
  8
受信機_上カバー
370
    18
100
AcDbLine
 10
441.8074999999982
 20
494.1039644879682
 30
0.0
 11
444.5074999999989
 21
494.1039644879682
 31
0.0
  0
LINE
  5
3FF
330
1F
100
AcDbEntity
  8
受信機_上カバー
370
    18
100
AcDbLine
 10
445.4524999999986
 20
550.9929644879683
 30
0.0
 11
445.4524999999986
 21
533.982964487968
 31
0.0
  0
LINE
  5
400
330
1F
100
AcDbEntity
  8
受信機_上カバー
  6
Continuous
100
AcDbLine
 10
423.2449999999991
 20
552.0729644879682
 30
0.0
 11
423.2449999999982
 21
518.3229644879682
 31
0.0
  0
ARC
  5
401
330
1F
100
AcDbEntity
  8
受信機_上カバー
370
    18
100
AcDbCircle
 10
445.8574999999984
 20
550.9929644879683
 30
0.0
 40
0.405
100
AcDbArc
 50
0.0
 51
180.0
  0
ARC
  5
402
330
1F
100
AcDbEntity
  8
受信機_上カバー
  6
Continuous
100
AcDbCircle
 10
440.7949999999984
 20
552.0729644879682
 30
0.0
 40
1.35
100
AcDbArc
 50
90.0
 51
180.0
  0
LINE
  5
403
330
1F
100
AcDbEntity
  8
受信機_上カバー
370
    18
100
AcDbLine
 10
440.7949999999984
 20
552.7479644879679
 30
0.0
 11
452.9449999999989
 21
552.7479644879679
 31
0.0
  0
ARC
  5
404
330
1F
100
AcDbEntity
  8
受信機_上カバー
370
    18
100
AcDbCircle
 10
451.9324999999991
 20
550.9929644879683
 30
0.0
 40
0.405
100
AcDbArc
 50
0.0
 51
180.0
  0
LINE
  5
405
330
1F
100
AcDbEntity
  8
受信機_上カバー
  6
Continuous
100
AcDbLine
 10
424.5949999999985
 20
516.9729644879678
 30
0.0
 11
436.7449999999982
 21
516.9729644879678
 31
0.0
  0
LWPOLYLINE
  5
406
330
1F
100
AcDbEntity
  8
受信機_上カバー
100
AcDbPolyline
 90
        5
 70
     0
 43
0.0
 10
461.0449999999984
 20
509.372964487968
 10
461.0449999999984
 20
513.3729644879679
 10
462.0449999999984
 20
513.3729644879679
 10
462.0449999999984
 20
509.372964487968
 10
461.0449999999984
 20
509.372964487968
  0
LINE
  5
407
330
1F
100
AcDbEntity
  8
受信機_上カバー
370
    18
100
AcDbLine
 10
441.4699999999985
 20
493.671964487968
 30
0.0
 11
444.8449999999985
 21
493.671964487968
 31
0.0
  0
LINE
  5
408
330
1F
100
AcDbEntity
  8
受信機_上カバー
  6
Continuous
100
AcDbLine
 10
440.7949999999984
 20
516.9729644879678
 30
0.0
 11
452.9449999999989
 21
516.9729644879678
 31
0.0
  0
ARC
  5
409
330
1F
100
AcDbEntity
  8
受信機_上カバー
370
    18
100
AcDbCircle
 10
447.8824999999989
 20
550.9929644879683
 30
0.0
 40
0.405
100
AcDbArc
 50
0.0
 51
180.0
  0
TEXT
  5
40A
330
1F
100
AcDbEntity
  8
受信機_上カバー
100
AcDbText
 10
446.6875610351562
 20
498.9403747208488
 30
0.0
 40
1.557855259619975
  1
H
 41
1.000000000000004
  7
MS Gothic
 11
446.6875610351562
 21
500.4982299804688
 31
0.0
100
AcDbText
 73
     3
  0
LINE
  5
40B
330
1F
100
AcDbEntity
  8
受信機_上カバー
370
    18
100
AcDbLine
 10
448.2874999999987
 20
550.9929644879683
 30
0.0
 11
448.2874999999987
 21
533.982964487968
 31
0.0
  0
LINE
  5
40C
330
1F
100
AcDbEntity
  8
受信機_上カバー
370
    18
100
AcDbLine
 10
447.1840999999987
 20
498.2394644879681
 30
0.0
 11
447.1840999999987
 21
495.926464487968
 31
0.0
  0
LINE
  5
40D
330
1F
100
AcDbEntity
  8
受信機_上カバー
370
    18
100
AcDbLine
 10
447.4774999999983
 20
550.9929644879683
 30
0.0
 11
447.4774999999983
 21
533.982964487968
 31
0.0
  0
LINE
  5
40E
330
1F
100
AcDbEntity
  8
受信機_上カバー
370
    18
100
AcDbLine
 10
443.427499999999
 20
550.9929644879683
 30
0.0
 11
443.4274999999981
 21
533.982964487968
 31
0.0
  0
LINE
  5
40F
330
1F
100
AcDbEntity
  8
受信機_上カバー
  6
Continuous
100
AcDbLine
 10
421.8949999999987
 20
556.1229644879679
 30
0.0
 11
437.1989219848209
 21
556.1229644879679
 31
0.0
  0
LINE
  5
410
330
1F
100
AcDbEntity
  8
受信機_上カバー
  6
Continuous
100
AcDbLine
 10
440.4010780151779
 20
556.1229644879679
 30
0.0
 11
448.7699999999987
 21
556.1229644879679
 31
0.0
  0
ARC
  5
411
330
1F
100
AcDbEntity
  8
受信機_上カバー
  6
点線A
370
    18
100
AcDbCircle
 10
455.6449999999987
 20
487.2729644879681
 30
0.0
 40
5.4
100
AcDbArc
 50
353.172018451128
 51
0.0
  0
ARC
  5
412
330
1F
100
AcDbEntity
  8
受信機_上カバー
  6
点線A
370
    18
100
AcDbCircle
 10
421.8949999999987
 20
487.2729644879681
 30
0.0
 40
5.4
100
AcDbArc
 50
180.0
 51
186.8279815488719
  0
ARC
  5
413
330
1F
100
AcDbEntity
  8
受信機_上カバー
370
    18
100
AcDbCircle
 10
455.6603697284487
 20
550.6816821464647
 30
0.0
 40
5.727213353161945
100
AcDbArc
 50
340.0823597551569
 51
108.1811016183447
  0
LINE
  5
414
330
1F
100
AcDbEntity
  8
受信機_上カバー
370
    18
100
AcDbLine
 10
504.6199999999991
 20
552.0729644879682
 30
0.0
 11
504.6199999999982
 21
518.3229644879682
 31
0.0
  0
ARC
  5
415
330
1F
100
AcDbEntity
  8
受信機_上カバー
370
    18
100
AcDbCircle
 10
506.3074999999991
 20
550.9929644879683
 30
0.0
 40
0.405
100
AcDbArc
 50
0.0
 51
180.0
  0
ARC
  5
416
330
1F
100
AcDbEntity
  8
受信機_上カバー
370
    18
100
AcDbCircle
 10
489.0949999999985
 20
552.0729644879682
 30
0.0
 40
0.675
100
AcDbArc
 50
90.0
 51
180.0
  0
LINE
  5
417
330
1F
100
AcDbEntity
  8
受信機_上カバー
100
AcDbLine
 10
525.5449999999984
 20
550.7229644879678
 30
0.0
 11
525.5449999999984
 21
487.2729644879681
 31
0.0
  0
ARC
  5
418
330
1F
100
AcDbEntity
  8
受信機_上カバー
370
    18
100
AcDbCircle
 10
512.3824999999989
 20
533.982964487968
 30
0.0
 40
0.405
100
AcDbArc
 50
180.0
 51
0.0
  0
ARC
  5
419
330
1F
100
AcDbEntity
  8
受信機_上カバー
  6
Continuous
100
AcDbCircle
 10
489.0949999999985
 20
552.0729644879682
 30
0.0
 40
1.35
100
AcDbArc
 50
90.0
 51
180.0
  0
ARC
  5
41A
330
1F
100
AcDbEntity
  8
受信機_上カバー
  6
Continuous
100
AcDbCircle
 10
501.2449999999991
 20
552.0729644879682
 30
0.0
 40
1.35
100
AcDbArc
 50
0.0
 51
90.0
  0
ARC
  5
41B
330
1F
100
AcDbEntity
  8
受信機_上カバー
370
    18
100
AcDbCircle
 10
508.3324999999987
 20
550.9929644879683
 30
0.0
 40
0.405
100
AcDbArc
 50
0.0
 51
180.0
  0
LINE
  5
41C
330
1F
100
AcDbEntity
  8
受信機_上カバー
  6
Continuous
100
AcDbLine
 10
505.2949999999984
 20
553.4229644879681
 30
0.0
 11
517.4449999999989
 21
553.4229644879681
 31
0.0
  0
LINE
  5
41D
330
1F
100
AcDbEntity
  8
受信機_上カバー
370
    18
100
AcDbLine
 10
506.6449999999987
 20
494.4414644879683
 30
0.0
 11
508.6699999999984
 21
494.4414644879683
 31
0.0
  0
ARC
  5
41E
330
1F
100
AcDbEntity
  8
受信機_上カバー
  6
Continuous
100
AcDbCircle
 10
489.0949999999985
 20
518.3229644879682
 30
0.0
 40
1.35
100
AcDbArc
 50
180.0
 51
270.0
  0
ARC
  5
41F
330
1F
100
AcDbEntity
  8
受信機_上カバー
370
    18
100
AcDbCircle
 10
489.0949999999985
 20
518.3229644879682
 30
0.0
 40
0.675
100
AcDbArc
 50
180.0
 51
270.0
  0
ARC
  5
420
330
1F
100
AcDbEntity
  8
受信機_上カバー
370
    18
100
AcDbCircle
 10
514.4074999999985
 20
533.982964487968
 30
0.0
 40
0.405
100
AcDbArc
 50
180.0
 51
0.0
  0
LINE
  5
421
330
1F
100
AcDbEntity
  8
受信機_上カバー
100
AcDbLine
 10
480.9949999999991
 20
550.7229644879678
 30
0.0
 11
480.9949999999982
 21
487.2729644879681
 31
0.0
  0
ARC
  5
422
330
1F
100
AcDbEntity
  8
受信機_上カバー
  6
Continuous
100
AcDbCircle
 10
505.2949999999984
 20
518.3229644879682
 30
0.0
 40
1.35
100
AcDbArc
 50
180.0
 51
270.0
  0
ARC
  5
423
330
1F
100
AcDbEntity
  8
受信機_上カバー
  6
Continuous
100
AcDbCircle
 10
517.4449999999989
 20
518.3229644879682
 30
0.0
 40
1.35
100
AcDbArc
 50
270.0
 51
0.0
  0
LINE
  5
424
330
1F
100
AcDbEntity
  8
受信機_上カバー
  6
Continuous
100
AcDbLine
 10
489.0949999999985
 20
553.4229644879681
 30
0.0
 11
501.2449999999991
 21
553.4229644879681
 31
0.0
  0
LINE
  5
425
330
1F
100
AcDbEntity
  8
受信機_上カバー
370
    18
100
AcDbLine
 10
505.9699999999985
 20
500.421964487968
 30
0.0
 11
505.9699999999985
 21
493.671964487968
 31
0.0
  0
LINE
  5
426
330
1F
100
AcDbEntity
  8
受信機_上カバー
370
    18
100
AcDbLine
 10
511.9774999999983
 20
550.9929644879683
 30
0.0
 11
511.9774999999983
 21
533.982964487968
 31
0.0
  0
LINE
  5
427
330
1F
100
AcDbEntity
  8
受信機_上カバー
370
    18
100
AcDbLine
 10
507.927499999999
 20
550.9929644879683
 30
0.0
 11
507.9274999999981
 21
533.982964487968
 31
0.0
  0
LINE
  5
428
330
1F
100
AcDbEntity
  8
受信機_上カバー
  6
Continuous
100
AcDbLine
 10
486.3949999999987
 20
556.1229644879679
 30
0.0
 11
501.6989219848209
 21
556.1229644879679
 31
0.0
  0
ARC
  5
429
330
1F
100
AcDbEntity
  8
受信機_上カバー
  6
点線A
370
    18
100
AcDbCircle
 10
520.1449999999987
 20
487.2729644879681
 30
0.0
 40
5.4
100
AcDbArc
 50
353.172018451128
 51
0.0
  0
LINE
  5
42A
330
1F
100
AcDbEntity
  8
受信機_上カバー
  6
Continuous
100
AcDbLine
 10
504.9010780151779
 20
556.1229644879679
 30
0.0
 11
513.2699999999987
 21
556.1229644879679
 31
0.0
  0
ARC
  5
42B
330
1F
100
AcDbEntity
  8
受信機_上カバー
  6
点線A
370
    18
100
AcDbCircle
 10
486.3949999999987
 20
487.2729644879681
 30
0.0
 40
5.4
100
AcDbArc
 50
180.0
 51
186.8279815488719
  0
LINE
  5
42C
330
1F
100
AcDbEntity
  8
受信機_上カバー
370
    18
100
AcDbLine
 10
510.762499999999
 20
550.9929644879683
 30
0.0
 11
510.762499999999
 21
533.982964487968
 31
0.0
  0
LINE
  5
42D
330
1F
100
AcDbEntity
  8
受信機_上カバー
370
    18
100
AcDbLine
 10
501.9199999999984
 20
552.0729644879682
 30
0.0
 11
501.9199999999984
 21
518.3229644879682
 31
0.0
  0
ARC
  5
42E
330
1F
100
AcDbEntity
  8
受信機_上カバー
370
    18
100
AcDbCircle
 10
517.4449999999989
 20
552.0729644879682
 30
0.0
 40
0.675
100
AcDbArc
 50
0.0
 51
90.0
  0
LINE
  5
42F
330
1F
100
AcDbEntity
  8
受信機_上カバー
370
    18
100
AcDbLine
 10
488.4199999999984
 20
552.0729644879682
 30
0.0
 11
488.4199999999984
 21
518.3229644879682
 31
0.0
  0
LINE
  5
430
330
1F
100
AcDbEntity
  8
受信機_上カバー
370
    18
100
AcDbLine
 10
509.0074999999989
 20
496.803964487968
 30
0.0
 11
506.3074999999982
 21
496.803964487968
 31
0.0
  0
ARC
  5
431
330
1F
100
AcDbEntity
  8
受信機_上カバー
100
AcDbCircle
 10
486.3949999999987
 20
550.7229644879678
 30
0.0
 40
5.4
100
AcDbArc
 50
90.0
 51
180.0
  0
ARC
  5
432
330
1F
100
AcDbEntity
  8
受信機_上カバー
100
AcDbCircle
 10
520.1449999999987
 20
550.7229644879678
 30
0.0
 40
5.4
100
AcDbArc
 50
0.0
 51
90.0
  0
ARC
  5
433
330
1F
100
AcDbEntity
  8
受信機_上カバー
370
    18
100
AcDbCircle
 10
506.3074999999982
 20
533.982964487968
 30
0.0
 40
0.405
100
AcDbArc
 50
180.0
 51
0.0
  0
LINE
  5
434
330
1F
100
AcDbEntity
  8
受信機_上カバー
  6
Continuous
100
AcDbLine
 10
518.7949999999984
 20
552.0729644879682
 30
0.0
 11
518.7949999999984
 21
518.3229644879682
 31
0.0
  0
LINE
  5
435
330
1F
100
AcDbEntity
  8
受信機_上カバー
  6
Continuous
100
AcDbLine
 10
502.5949999999985
 20
552.0729644879682
 30
0.0
 11
502.5949999999985
 21
518.3229644879682
 31
0.0
  0
LINE
  5
436
330
1F
100
AcDbEntity
  8
受信機_上カバー
370
    18
100
AcDbLine
 10
509.0074999999989
 20
494.1039644879682
 30
0.0
 11
509.0074999999989
 21
496.803964487968
 31
0.0
  0
LINE
  5
437
330
1F
100
AcDbEntity
  8
受信機_上カバー
370
    18
100
AcDbLine
 10
514.0024999999988
 20
550.9929644879683
 30
0.0
 11
514.0024999999988
 21
533.982964487968
 31
0.0
  0
LINE
  5
438
330
1F
100
AcDbEntity
  8
受信機_上カバー
370
    18
100
AcDbLine
 10
518.1199999999991
 20
552.0729644879682
 30
0.0
 11
518.1199999999982
 21
518.3229644879682
 31
0.0
  0
LINE
  5
439
330
1F
100
AcDbEntity
  8
受信機_上カバー
370
    18
100
AcDbLine
 10
506.6449999999987
 20
495.7914644879682
 30
0.0
 11
508.6699999999984
 21
495.7914644879682
 31
0.0
  0
LINE
  5
43A
330
1F
100
AcDbEntity
  8
受信機_上カバー
370
    18
100
AcDbLine
 10
509.3449999999985
 20
493.671964487968
 30
0.0
 11
509.3449999999985
 21
500.421964487968
 31
0.0
  0
LINE
  5
43B
330
1F
100
AcDbEntity
  8
受信機_上カバー
370
    18
100
AcDbLine
 10
505.2949999999984
 20
517.647964487968
 30
0.0
 11
517.4449999999989
 21
517.647964487968
 31
0.0
  0
ARC
  5
43C
330
1F
100
AcDbEntity
  8
受信機_上カバー
370
    18
100
AcDbCircle
 10
508.3324999999987
 20
533.982964487968
 30
0.0
 40
0.405
100
AcDbArc
 50
180.0
 51
0.0
  0
LINE
  5
43D
330
1F
100
AcDbEntity
  8
受信機_上カバー
  6
Continuous
100
AcDbLine
 10
503.9449999999989
 20
552.0729644879682
 30
0.0
 11
503.9449999999989
 21
518.3229644879682
 31
0.0
  0
LINE
  5
43E
330
1F
100
AcDbEntity
  8
受信機_上カバー
370
    18
100
AcDbLine
 10
489.0949999999985
 20
552.7479644879679
 30
0.0
 11
501.2449999999991
 21
552.7479644879679
 31
0.0
  0
LINE
  5
43F
330
1F
100
AcDbEntity
  8
受信機_上カバー
370
    18
100
AcDbLine
 10
506.3074999999982
 20
494.1039644879682
 30
0.0
 11
509.0074999999989
 21
494.1039644879682
 31
0.0
  0
LINE
  5
440
330
1F
100
AcDbEntity
  8
受信機_上カバー
370
    18
100
AcDbLine
 10
509.9524999999986
 20
550.9929644879683
 30
0.0
 11
509.9524999999986
 21
533.982964487968
 31
0.0
  0
ARC
  5
441
330
1F
100
AcDbEntity
  8
受信機_上カバー
370
    18
100
AcDbCircle
 10
510.3574999999984
 20
550.9929644879683
 30
0.0
 40
0.405
100
AcDbArc
 50
0.0
 51
180.0
  0
LINE
  5
442
330
1F
100
AcDbEntity
  8
受信機_上カバー
  6
Continuous
100
AcDbLine
 10
487.7449999999991
 20
552.0729644879682
 30
0.0
 11
487.7449999999982
 21
518.3229644879682
 31
0.0
  0
ARC
  5
443
330
1F
100
AcDbEntity
  8
受信機_上カバー
  6
Continuous
100
AcDbCircle
 10
505.2949999999984
 20
552.0729644879682
 30
0.0
 40
1.35
100
AcDbArc
 50
90.0
 51
180.0
  0
LINE
  5
444
330
1F
100
AcDbEntity
  8
受信機_上カバー
370
    18
100
AcDbLine
 10
516.0274999999984
 20
550.9929644879683
 30
0.0
 11
516.0274999999984
 21
533.982964487968
 31
0.0
  0
TEXT
  5
445
330
1F
100
AcDbEntity
  8
受信機_上カバー
100
AcDbText
 10
511.1201782226562
 20
494.1567678740531
 30
0.0
 40
1.558014840790714
  1
L
 41
1.000000000000004
  7
MS Gothic
 11
511.1201782226562
 21
495.7147827148438
 31
0.0
100
AcDbText
 73
     3
  0
ARC
  5
446
330
1F
100
AcDbEntity
  8
受信機_上カバー
370
    18
100
AcDbCircle
 10
505.2949999999984
 20
518.3229644879682
 30
0.0
 40
0.675
100
AcDbArc
 50
180.0
 51
270.0
  0
ARC
  5
447
330
1F
100
AcDbEntity
  8
受信機_上カバー
370
    18
100
AcDbCircle
 10
517.4449999999989
 20
518.3229644879682
 30
0.0
 40
0.675
100
AcDbArc
 50
270.0
 51
0.0
  0
LINE
  5
448
330
1F
100
AcDbEntity
  8
受信機_上カバー
370
    18
100
AcDbLine
 10
509.3449999999985
 20
500.421964487968
 30
0.0
 11
505.9699999999985
 21
500.421964487968
 31
0.0
  0
ARC
  5
449
330
1F
100
AcDbEntity
  8
受信機_上カバー
370
    18
100
AcDbCircle
 10
501.2449999999991
 20
552.0729644879682
 30
0.0
 40
0.675
100
AcDbArc
 50
0.0
 51
90.0
  0
ARC
  5
44A
330
1F
100
AcDbEntity
  8
受信機_上カバー
370
    18
100
AcDbCircle
 10
501.2449999999982
 20
518.3229644879682
 30
0.0
 40
0.675
100
AcDbArc
 50
270.0
 51
0.0
  0
LINE
  5
44B
330
1F
100
AcDbEntity
  8
受信機_上カバー
370
    18
100
AcDbLine
 10
506.7124999999988
 20
550.9929644879683
 30
0.0
 11
506.7124999999988
 21
533.982964487968
 31
0.0
  0
TEXT
  5
44C
330
1F
100
AcDbEntity
  8
受信機_上カバー
100
AcDbText
 10
496.0610961914062
 20
502.8796849059584
 30
0.0
 40
1.038466949510322
  1
TONE ADJUSTMENT
 41
0.9999996605042548
  7
MS Gothic
 11
496.0610961914062
 21
503.9181518554688
 31
0.0
100
AcDbText
 73
     3
  0
LINE
  5
44D
330
1F
100
AcDbEntity
  8
受信機_上カバー
370
    18
100
AcDbLine
 10
505.9024999999984
 20
550.9929644879683
 30
0.0
 11
505.9024999999984
 21
533.982964487968
 31
0.0
  0
LINE
  5
44E
330
1F
100
AcDbEntity
  8
受信機_上カバー
370
    18
100
AcDbLine
 10
505.2949999999984
 20
552.7479644879679
 30
0.0
 11
517.4449999999989
 21
552.7479644879679
 31
0.0
  0
ARC
  5
44F
330
1F
100
AcDbEntity
  8
受信機_上カバー
370
    18
100
AcDbCircle
 10
516.4324999999991
 20
550.9929644879683
 30
0.0
 40
0.405
100
AcDbArc
 50
0.0
 51
180.0
  0
LINE
  5
450
330
1F
100
AcDbEntity
  8
受信機_上カバー
  6
Continuous
100
AcDbLine
 10
489.0949999999985
 20
516.9729644879678
 30
0.0
 11
501.2449999999982
 21
516.9729644879678
 31
0.0
  0
LWPOLYLINE
  5
451
330
1F
100
AcDbEntity
  8
受信機_上カバー
100
AcDbPolyline
 90
        5
 70
     0
 43
0.0
 10
525.5449999999984
 20
509.372964487968
 10
525.5449999999984
 20
513.3729644879679
 10
526.5449999999984
 20
513.3729644879679
 10
526.5449999999984
 20
509.372964487968
 10
525.5449999999984
 20
509.372964487968
  0
LINE
  5
452
330
1F
100
AcDbEntity
  8
受信機_上カバー
370
    18
100
AcDbLine
 10
505.9699999999985
 20
493.671964487968
 30
0.0
 11
509.3449999999985
 21
493.671964487968
 31
0.0
  0
LINE
  5
453
330
1F
100
AcDbEntity
  8
受信機_上カバー
  6
Continuous
100
AcDbLine
 10
505.2949999999984
 20
516.9729644879678
 30
0.0
 11
517.4449999999989
 21
516.9729644879678
 31
0.0
  0
ARC
  5
454
330
1F
100
AcDbEntity
  8
受信機_上カバー
370
    18
100
AcDbCircle
 10
512.3824999999989
 20
550.9929644879683
 30
0.0
 40
0.405
100
AcDbArc
 50
0.0
 51
180.0
  0
ARC
  5
455
330
1F
100
AcDbEntity
  8
受信機_上カバー
370
    18
100
AcDbCircle
 10
520.1603697284487
 20
550.6816821464647
 30
0.0
 40
5.727213353161945
100
AcDbArc
 50
340.0823597551569
 51
108.1811016183447
  0
ARC
  5
456
330
1F
100
AcDbEntity
  8
受信機_上カバー
370
    18
100
AcDbCircle
 10
505.2949999999984
 20
552.0729644879682
 30
0.0
 40
0.675
100
AcDbArc
 50
90.0
 51
180.0
  0
LINE
  5
457
330
1F
100
AcDbEntity
  8
受信機_上カバー
370
    18
100
AcDbLine
 10
506.6449999999987
 20
495.116464487968
 30
0.0
 11
508.6699999999984
 21
495.116464487968
 31
0.0
  0
LINE
  5
458
330
1F
100
AcDbEntity
  8
受信機_上カバー
  6
Continuous
100
AcDbLine
 10
513.2699999999987
 20
556.1229644879679
 30
0.0
 11
520.1449999999987
 21
556.1229644879679
 31
0.0
  0
ARC
  5
459
330
1F
100
AcDbEntity
  8
受信機_上カバー
  6
Continuous
100
AcDbCircle
 10
501.2449999999982
 20
518.3229644879682
 30
0.0
 40
1.35
100
AcDbArc
 50
270.0
 51
0.0
  0
LINE
  5
45A
330
1F
100
AcDbEntity
  8
受信機_上カバー
370
    18
100
AcDbLine
 10
506.6449999999987
 20
496.4664644879679
 30
0.0
 11
508.6699999999984
 21
496.4664644879679
 31
0.0
  0
ARC
  5
45B
330
1F
100
AcDbEntity
  8
受信機_上カバー
370
    18
100
AcDbCircle
 10
516.4324999999982
 20
533.982964487968
 30
0.0
 40
0.405
100
AcDbArc
 50
180.0
 51
0.0
  0
ARC
  5
45C
330
1F
100
AcDbEntity
  8
受信機_上カバー
370
    18
100
AcDbCircle
 10
510.3574999999984
 20
533.982964487968
 30
0.0
 40
0.405
100
AcDbArc
 50
180.0
 51
0.0
  0
ARC
  5
45D
330
1F
100
AcDbEntity
  8
受信機_上カバー
  6
Continuous
100
AcDbCircle
 10
517.4449999999989
 20
552.0729644879682
 30
0.0
 40
1.35
100
AcDbArc
 50
0.0
 51
90.0
  0
TEXT
  5
45E
330
1F
100
AcDbEntity
  8
受信機_上カバー
100
AcDbText
 10
511.1875610351562
 20
498.9404330718586
 30
0.0
 40
1.557796908610176
  1
H
 41
1.000000000000004
  7
MS Gothic
 11
511.1875610351562
 21
500.4982299804688
 31
0.0
100
AcDbText
 73
     3
  0
LINE
  5
45F
330
1F
100
AcDbEntity
  8
受信機_上カバー
370
    18
100
AcDbLine
 10
489.0949999999985
 20
517.647964487968
 30
0.0
 11
501.2449999999982
 21
517.647964487968
 31
0.0
  0
LINE
  5
460
330
1F
100
AcDbEntity
  8
受信機_上カバー
370
    18
100
AcDbLine
 10
512.7874999999987
 20
550.9929644879683
 30
0.0
 11
512.7874999999987
 21
533.982964487968
 31
0.0
  0
LINE
  5
461
330
1F
100
AcDbEntity
  8
受信機_上カバー
370
    18
100
AcDbLine
 10
511.6840999999987
 20
498.2394644879681
 30
0.0
 11
511.6840999999987
 21
495.926464487968
 31
0.0
  0
LINE
  5
462
330
1F
100
AcDbEntity
  8
受信機_上カバー
370
    18
100
AcDbLine
 10
516.8374999999988
 20
550.9929644879683
 30
0.0
 11
516.8374999999988
 21
533.982964487968
 31
0.0
  0
LINE
  5
463
330
1F
100
AcDbEntity
  8
受信機_上カバー
370
    18
100
AcDbLine
 10
506.3074999999982
 20
496.803964487968
 30
0.0
 11
506.3074999999982
 21
494.1039644879682
 31
0.0
  0
ARC
  5
464
330
1F
100
AcDbEntity
  8
受信機_上カバー
370
    18
100
AcDbCircle
 10
514.4074999999985
 20
550.9929644879683
 30
0.0
 40
0.405
100
AcDbArc
 50
0.0
 51
180.0
  0
LINE
  5
465
330
1F
100
AcDbEntity
  8
受信機_上カバー
370
    18
100
AcDbLine
 10
514.8124999999992
 20
550.9929644879683
 30
0.0
 11
514.8124999999983
 21
533.982964487968
 31
0.0
  0
LINE
  5
466
330
1F
100
AcDbEntity
  8
受信機_上カバー
370
    18
100
AcDbLine
 10
508.7374999999985
 20
550.9929644879683
 30
0.0
 11
508.7374999999985
 21
533.982964487968
 31
0.0
  0
LINE
  5
467
330
1F
100
AcDbEntity
  8
受信機_上カバー
370
    18
100
AcDbLine
 10
569.1199999999991
 20
552.0729644879682
 30
0.0
 11
569.1199999999982
 21
518.3229644879682
 31
0.0
  0
ARC
  5
468
330
1F
100
AcDbEntity
  8
受信機_上カバー
370
    18
100
AcDbCircle
 10
570.8074999999991
 20
550.9929644879683
 30
0.0
 40
0.405
100
AcDbArc
 50
0.0
 51
180.0
  0
ARC
  5
469
330
1F
100
AcDbEntity
  8
受信機_上カバー
370
    18
100
AcDbCircle
 10
553.5949999999985
 20
552.0729644879682
 30
0.0
 40
0.675
100
AcDbArc
 50
90.0
 51
180.0
  0
LINE
  5
46A
330
1F
100
AcDbEntity
  8
受信機_上カバー
100
AcDbLine
 10
590.0449999999984
 20
550.7229644879678
 30
0.0
 11
590.0449999999984
 21
487.2729644879681
 31
0.0
  0
ARC
  5
46B
330
1F
100
AcDbEntity
  8
受信機_上カバー
370
    18
100
AcDbCircle
 10
576.8824999999989
 20
533.982964487968
 30
0.0
 40
0.405
100
AcDbArc
 50
180.0
 51
0.0
  0
ARC
  5
46C
330
1F
100
AcDbEntity
  8
受信機_上カバー
  6
Continuous
100
AcDbCircle
 10
553.5949999999985
 20
552.0729644879682
 30
0.0
 40
1.35
100
AcDbArc
 50
90.0
 51
180.0
  0
ARC
  5
46D
330
1F
100
AcDbEntity
  8
受信機_上カバー
  6
Continuous
100
AcDbCircle
 10
565.7449999999991
 20
552.0729644879682
 30
0.0
 40
1.35
100
AcDbArc
 50
0.0
 51
90.0
  0
ARC
  5
46E
330
1F
100
AcDbEntity
  8
受信機_上カバー
370
    18
100
AcDbCircle
 10
572.8324999999987
 20
550.9929644879683
 30
0.0
 40
0.405
100
AcDbArc
 50
0.0
 51
180.0
  0
LINE
  5
46F
330
1F
100
AcDbEntity
  8
受信機_上カバー
  6
Continuous
100
AcDbLine
 10
569.7949999999984
 20
553.4229644879681
 30
0.0
 11
581.9449999999989
 21
553.4229644879681
 31
0.0
  0
LINE
  5
470
330
1F
100
AcDbEntity
  8
受信機_上カバー
370
    18
100
AcDbLine
 10
571.1449999999987
 20
494.4414644879683
 30
0.0
 11
573.1699999999984
 21
494.4414644879683
 31
0.0
  0
ARC
  5
471
330
1F
100
AcDbEntity
  8
受信機_上カバー
  6
Continuous
100
AcDbCircle
 10
553.5949999999985
 20
518.3229644879682
 30
0.0
 40
1.35
100
AcDbArc
 50
180.0
 51
270.0
  0
ARC
  5
472
330
1F
100
AcDbEntity
  8
受信機_上カバー
370
    18
100
AcDbCircle
 10
553.5949999999985
 20
518.3229644879682
 30
0.0
 40
0.675
100
AcDbArc
 50
180.0
 51
270.0
  0
ARC
  5
473
330
1F
100
AcDbEntity
  8
受信機_上カバー
370
    18
100
AcDbCircle
 10
578.9074999999985
 20
533.982964487968
 30
0.0
 40
0.405
100
AcDbArc
 50
180.0
 51
0.0
  0
LINE
  5
474
330
1F
100
AcDbEntity
  8
受信機_上カバー
100
AcDbLine
 10
545.4949999999991
 20
550.7229644879678
 30
0.0
 11
545.4949999999982
 21
487.2729644879681
 31
0.0
  0
ARC
  5
475
330
1F
100
AcDbEntity
  8
受信機_上カバー
  6
Continuous
100
AcDbCircle
 10
569.7949999999984
 20
518.3229644879682
 30
0.0
 40
1.35
100
AcDbArc
 50
180.0
 51
270.0
  0
ARC
  5
476
330
1F
100
AcDbEntity
  8
受信機_上カバー
  6
Continuous
100
AcDbCircle
 10
581.9449999999989
 20
518.3229644879682
 30
0.0
 40
1.35
100
AcDbArc
 50
270.0
 51
0.0
  0
LINE
  5
477
330
1F
100
AcDbEntity
  8
受信機_上カバー
  6
Continuous
100
AcDbLine
 10
553.5949999999985
 20
553.4229644879681
 30
0.0
 11
565.7449999999991
 21
553.4229644879681
 31
0.0
  0
LINE
  5
478
330
1F
100
AcDbEntity
  8
受信機_上カバー
370
    18
100
AcDbLine
 10
570.4699999999985
 20
500.421964487968
 30
0.0
 11
570.4699999999985
 21
493.671964487968
 31
0.0
  0
LINE
  5
479
330
1F
100
AcDbEntity
  8
受信機_上カバー
370
    18
100
AcDbLine
 10
576.4774999999983
 20
550.9929644879683
 30
0.0
 11
576.4774999999983
 21
533.982964487968
 31
0.0
  0
LINE
  5
47A
330
1F
100
AcDbEntity
  8
受信機_上カバー
370
    18
100
AcDbLine
 10
572.427499999999
 20
550.9929644879683
 30
0.0
 11
572.4274999999981
 21
533.982964487968
 31
0.0
  0
LINE
  5
47B
330
1F
100
AcDbEntity
  8
受信機_上カバー
  6
Continuous
100
AcDbLine
 10
550.8949999999987
 20
556.1229644879679
 30
0.0
 11
566.1989219848209
 21
556.1229644879679
 31
0.0
  0
ARC
  5
47C
330
1F
100
AcDbEntity
  8
受信機_上カバー
  6
点線A
370
    18
100
AcDbCircle
 10
584.6449999999987
 20
487.2729644879681
 30
0.0
 40
5.4
100
AcDbArc
 50
353.172018451128
 51
0.0
  0
LINE
  5
47D
330
1F
100
AcDbEntity
  8
受信機_上カバー
  6
Continuous
100
AcDbLine
 10
569.4010780151779
 20
556.1229644879679
 30
0.0
 11
577.7699999999987
 21
556.1229644879679
 31
0.0
  0
ARC
  5
47E
330
1F
100
AcDbEntity
  8
受信機_上カバー
  6
点線A
370
    18
100
AcDbCircle
 10
550.8949999999987
 20
487.2729644879681
 30
0.0
 40
5.4
100
AcDbArc
 50
180.0
 51
186.8279815488719
  0
LINE
  5
47F
330
1F
100
AcDbEntity
  8
受信機_上カバー
370
    18
100
AcDbLine
 10
575.262499999999
 20
550.9929644879683
 30
0.0
 11
575.262499999999
 21
533.982964487968
 31
0.0
  0
LINE
  5
480
330
1F
100
AcDbEntity
  8
受信機_上カバー
370
    18
100
AcDbLine
 10
566.4199999999984
 20
552.0729644879682
 30
0.0
 11
566.4199999999984
 21
518.3229644879682
 31
0.0
  0
ARC
  5
481
330
1F
100
AcDbEntity
  8
受信機_上カバー
370
    18
100
AcDbCircle
 10
581.9449999999989
 20
552.0729644879682
 30
0.0
 40
0.675
100
AcDbArc
 50
0.0
 51
90.0
  0
LINE
  5
482
330
1F
100
AcDbEntity
  8
受信機_上カバー
370
    18
100
AcDbLine
 10
552.9199999999984
 20
552.0729644879682
 30
0.0
 11
552.9199999999984
 21
518.3229644879682
 31
0.0
  0
LINE
  5
483
330
1F
100
AcDbEntity
  8
受信機_上カバー
370
    18
100
AcDbLine
 10
573.5074999999989
 20
496.803964487968
 30
0.0
 11
570.8074999999982
 21
496.803964487968
 31
0.0
  0
ARC
  5
484
330
1F
100
AcDbEntity
  8
受信機_上カバー
100
AcDbCircle
 10
550.8949999999987
 20
550.7229644879678
 30
0.0
 40
5.4
100
AcDbArc
 50
90.0
 51
180.0
  0
ARC
  5
485
330
1F
100
AcDbEntity
  8
受信機_上カバー
100
AcDbCircle
 10
584.6449999999987
 20
550.7229644879678
 30
0.0
 40
5.4
100
AcDbArc
 50
0.0
 51
90.0
  0
ARC
  5
486
330
1F
100
AcDbEntity
  8
受信機_上カバー
370
    18
100
AcDbCircle
 10
570.8074999999982
 20
533.982964487968
 30
0.0
 40
0.405
100
AcDbArc
 50
180.0
 51
0.0
  0
LINE
  5
487
330
1F
100
AcDbEntity
  8
受信機_上カバー
  6
Continuous
100
AcDbLine
 10
583.2949999999984
 20
552.0729644879682
 30
0.0
 11
583.2949999999984
 21
518.3229644879682
 31
0.0
  0
LINE
  5
488
330
1F
100
AcDbEntity
  8
受信機_上カバー
  6
Continuous
100
AcDbLine
 10
567.0949999999985
 20
552.0729644879682
 30
0.0
 11
567.0949999999985
 21
518.3229644879682
 31
0.0
  0
LINE
  5
489
330
1F
100
AcDbEntity
  8
受信機_上カバー
370
    18
100
AcDbLine
 10
573.5074999999989
 20
494.1039644879682
 30
0.0
 11
573.5074999999989
 21
496.803964487968
 31
0.0
  0
LINE
  5
48A
330
1F
100
AcDbEntity
  8
受信機_上カバー
370
    18
100
AcDbLine
 10
578.5024999999988
 20
550.9929644879683
 30
0.0
 11
578.5024999999988
 21
533.982964487968
 31
0.0
  0
LINE
  5
48B
330
1F
100
AcDbEntity
  8
受信機_上カバー
370
    18
100
AcDbLine
 10
582.6199999999991
 20
552.0729644879682
 30
0.0
 11
582.6199999999982
 21
518.3229644879682
 31
0.0
  0
LINE
  5
48C
330
1F
100
AcDbEntity
  8
受信機_上カバー
370
    18
100
AcDbLine
 10
571.1449999999987
 20
495.7914644879682
 30
0.0
 11
573.1699999999984
 21
495.7914644879682
 31
0.0
  0
LINE
  5
48D
330
1F
100
AcDbEntity
  8
受信機_上カバー
370
    18
100
AcDbLine
 10
573.8449999999985
 20
493.671964487968
 30
0.0
 11
573.8449999999985
 21
500.421964487968
 31
0.0
  0
LINE
  5
48E
330
1F
100
AcDbEntity
  8
受信機_上カバー
370
    18
100
AcDbLine
 10
569.7949999999984
 20
517.647964487968
 30
0.0
 11
581.9449999999989
 21
517.647964487968
 31
0.0
  0
ARC
  5
48F
330
1F
100
AcDbEntity
  8
受信機_上カバー
370
    18
100
AcDbCircle
 10
572.8324999999987
 20
533.982964487968
 30
0.0
 40
0.405
100
AcDbArc
 50
180.0
 51
0.0
  0
LINE
  5
490
330
1F
100
AcDbEntity
  8
受信機_上カバー
  6
Continuous
100
AcDbLine
 10
568.4449999999989
 20
552.0729644879682
 30
0.0
 11
568.4449999999989
 21
518.3229644879682
 31
0.0
  0
LINE
  5
491
330
1F
100
AcDbEntity
  8
受信機_上カバー
370
    18
100
AcDbLine
 10
553.5949999999985
 20
552.7479644879679
 30
0.0
 11
565.7449999999991
 21
552.7479644879679
 31
0.0
  0
LINE
  5
492
330
1F
100
AcDbEntity
  8
受信機_上カバー
370
    18
100
AcDbLine
 10
570.8074999999982
 20
494.1039644879682
 30
0.0
 11
573.5074999999989
 21
494.1039644879682
 31
0.0
  0
LINE
  5
493
330
1F
100
AcDbEntity
  8
受信機_上カバー
370
    18
100
AcDbLine
 10
574.4524999999986
 20
550.9929644879683
 30
0.0
 11
574.4524999999986
 21
533.982964487968
 31
0.0
  0
ARC
  5
494
330
1F
100
AcDbEntity
  8
受信機_上カバー
370
    18
100
AcDbCircle
 10
574.8574999999984
 20
550.9929644879683
 30
0.0
 40
0.405
100
AcDbArc
 50
0.0
 51
180.0
  0
LINE
  5
495
330
1F
100
AcDbEntity
  8
受信機_上カバー
  6
Continuous
100
AcDbLine
 10
552.2449999999991
 20
552.0729644879682
 30
0.0
 11
552.2449999999982
 21
518.3229644879682
 31
0.0
  0
ARC
  5
496
330
1F
100
AcDbEntity
  8
受信機_上カバー
  6
Continuous
100
AcDbCircle
 10
569.7949999999984
 20
552.0729644879682
 30
0.0
 40
1.35
100
AcDbArc
 50
90.0
 51
180.0
  0
LINE
  5
497
330
1F
100
AcDbEntity
  8
受信機_上カバー
370
    18
100
AcDbLine
 10
580.5274999999984
 20
550.9929644879683
 30
0.0
 11
580.5274999999984
 21
533.982964487968
 31
0.0
  0
TEXT
  5
498
330
1F
100
AcDbEntity
  8
受信機_上カバー
100
AcDbText
 10
575.6201782226562
 20
494.1567678740531
 30
0.0
 40
1.558014840790714
  1
L
 41
1.000000000000004
  7
MS Gothic
 11
575.6201782226562
 21
495.7147827148438
 31
0.0
100
AcDbText
 73
     3
  0
ARC
  5
499
330
1F
100
AcDbEntity
  8
受信機_上カバー
370
    18
100
AcDbCircle
 10
569.7949999999984
 20
518.3229644879682
 30
0.0
 40
0.675
100
AcDbArc
 50
180.0
 51
270.0
  0
ARC
  5
49A
330
1F
100
AcDbEntity
  8
受信機_上カバー
370
    18
100
AcDbCircle
 10
581.9449999999989
 20
518.3229644879682
 30
0.0
 40
0.675
100
AcDbArc
 50
270.0
 51
0.0
  0
LINE
  5
49B
330
1F
100
AcDbEntity
  8
受信機_上カバー
370
    18
100
AcDbLine
 10
573.8449999999985
 20
500.421964487968
 30
0.0
 11
570.4699999999985
 21
500.421964487968
 31
0.0
  0
ARC
  5
49C
330
1F
100
AcDbEntity
  8
受信機_上カバー
370
    18
100
AcDbCircle
 10
565.7449999999991
 20
552.0729644879682
 30
0.0
 40
0.675
100
AcDbArc
 50
0.0
 51
90.0
  0
ARC
  5
49D
330
1F
100
AcDbEntity
  8
受信機_上カバー
370
    18
100
AcDbCircle
 10
565.7449999999982
 20
518.3229644879682
 30
0.0
 40
0.675
100
AcDbArc
 50
270.0
 51
0.0
  0
LINE
  5
49E
330
1F
100
AcDbEntity
  8
受信機_上カバー
370
    18
100
AcDbLine
 10
571.2124999999988
 20
550.9929644879683
 30
0.0
 11
571.2124999999988
 21
533.982964487968
 31
0.0
  0
TEXT
  5
49F
330
1F
100
AcDbEntity
  8
受信機_上カバー
100
AcDbText
 10
560.5610961914062
 20
502.8796849059584
 30
0.0
 40
1.038466949510322
  1
TONE ADJUSTMENT
 41
0.9999996605042548
  7
MS Gothic
 11
560.5610961914062
 21
503.9181518554688
 31
0.0
100
AcDbText
 73
     3
  0
LINE
  5
4A0
330
1F
100
AcDbEntity
  8
受信機_上カバー
370
    18
100
AcDbLine
 10
570.4024999999984
 20
550.9929644879683
 30
0.0
 11
570.4024999999984
 21
533.982964487968
 31
0.0
  0
LINE
  5
4A1
330
1F
100
AcDbEntity
  8
受信機_上カバー
370
    18
100
AcDbLine
 10
569.7949999999984
 20
552.7479644879679
 30
0.0
 11
581.9449999999989
 21
552.7479644879679
 31
0.0
  0
ARC
  5
4A2
330
1F
100
AcDbEntity
  8
受信機_上カバー
370
    18
100
AcDbCircle
 10
580.9324999999991
 20
550.9929644879683
 30
0.0
 40
0.405
100
AcDbArc
 50
0.0
 51
180.0
  0
LINE
  5
4A3
330
1F
100
AcDbEntity
  8
受信機_上カバー
  6
Continuous
100
AcDbLine
 10
553.5949999999985
 20
516.9729644879678
 30
0.0
 11
565.7449999999982
 21
516.9729644879678
 31
0.0
  0
LWPOLYLINE
  5
4A4
330
1F
100
AcDbEntity
  8
受信機_上カバー
100
AcDbPolyline
 90
        5
 70
     0
 43
0.0
 10
590.0449999999984
 20
509.372964487968
 10
590.0449999999984
 20
513.3729644879679
 10
591.0449999999984
 20
513.3729644879679
 10
591.0449999999984
 20
509.372964487968
 10
590.0449999999984
 20
509.372964487968
  0
LINE
  5
4A5
330
1F
100
AcDbEntity
  8
受信機_上カバー
370
    18
100
AcDbLine
 10
570.4699999999985
 20
493.671964487968
 30
0.0
 11
573.8449999999985
 21
493.671964487968
 31
0.0
  0
LINE
  5
4A6
330
1F
100
AcDbEntity
  8
受信機_上カバー
  6
Continuous
100
AcDbLine
 10
569.7949999999984
 20
516.9729644879678
 30
0.0
 11
581.9449999999989
 21
516.9729644879678
 31
0.0
  0
ARC
  5
4A7
330
1F
100
AcDbEntity
  8
受信機_上カバー
370
    18
100
AcDbCircle
 10
576.8824999999989
 20
550.9929644879683
 30
0.0
 40
0.405
100
AcDbArc
 50
0.0
 51
180.0
  0
ARC
  5
4A8
330
1F
100
AcDbEntity
  8
受信機_上カバー
370
    18
100
AcDbCircle
 10
584.6603697284487
 20
550.6816821464647
 30
0.0
 40
5.727213353161945
100
AcDbArc
 50
340.0823597551569
 51
108.1811016183447
  0
ARC
  5
4A9
330
1F
100
AcDbEntity
  8
受信機_上カバー
370
    18
100
AcDbCircle
 10
569.7949999999984
 20
552.0729644879682
 30
0.0
 40
0.675
100
AcDbArc
 50
90.0
 51
180.0
  0
LINE
  5
4AA
330
1F
100
AcDbEntity
  8
受信機_上カバー
370
    18
100
AcDbLine
 10
571.1449999999987
 20
495.116464487968
 30
0.0
 11
573.1699999999984
 21
495.116464487968
 31
0.0
  0
LINE
  5
4AB
330
1F
100
AcDbEntity
  8
受信機_上カバー
  6
Continuous
100
AcDbLine
 10
577.7699999999987
 20
556.1229644879679
 30
0.0
 11
584.6449999999987
 21
556.1229644879679
 31
0.0
  0
ARC
  5
4AC
330
1F
100
AcDbEntity
  8
受信機_上カバー
  6
Continuous
100
AcDbCircle
 10
565.7449999999982
 20
518.3229644879682
 30
0.0
 40
1.35
100
AcDbArc
 50
270.0
 51
0.0
  0
LINE
  5
4AD
330
1F
100
AcDbEntity
  8
受信機_上カバー
370
    18
100
AcDbLine
 10
571.1449999999987
 20
496.4664644879679
 30
0.0
 11
573.1699999999984
 21
496.4664644879679
 31
0.0
  0
ARC
  5
4AE
330
1F
100
AcDbEntity
  8
受信機_上カバー
370
    18
100
AcDbCircle
 10
580.9324999999982
 20
533.982964487968
 30
0.0
 40
0.405
100
AcDbArc
 50
180.0
 51
0.0
  0
ARC
  5
4AF
330
1F
100
AcDbEntity
  8
受信機_上カバー
370
    18
100
AcDbCircle
 10
574.8574999999984
 20
533.982964487968
 30
0.0
 40
0.405
100
AcDbArc
 50
180.0
 51
0.0
  0
ARC
  5
4B0
330
1F
100
AcDbEntity
  8
受信機_上カバー
  6
Continuous
100
AcDbCircle
 10
581.9449999999989
 20
552.0729644879682
 30
0.0
 40
1.35
100
AcDbArc
 50
0.0
 51
90.0
  0
TEXT
  5
4B1
330
1F
100
AcDbEntity
  8
受信機_上カバー
100
AcDbText
 10
575.6875610351562
 20
498.9403747208488
 30
0.0
 40
1.557855259619975
  1
H
 41
1.000000000000004
  7
MS Gothic
 11
575.6875610351562
 21
500.4982299804688
 31
0.0
100
AcDbText
 73
     3
  0
LINE
  5
4B2
330
1F
100
AcDbEntity
  8
受信機_上カバー
370
    18
100
AcDbLine
 10
553.5949999999985
 20
517.647964487968
 30
0.0
 11
565.7449999999982
 21
517.647964487968
 31
0.0
  0
LINE
  5
4B3
330
1F
100
AcDbEntity
  8
受信機_上カバー
370
    18
100
AcDbLine
 10
577.2874999999987
 20
550.9929644879683
 30
0.0
 11
577.2874999999987
 21
533.982964487968
 31
0.0
  0
LINE
  5
4B4
330
1F
100
AcDbEntity
  8
受信機_上カバー
370
    18
100
AcDbLine
 10
576.1840999999987
 20
498.2394644879681
 30
0.0
 11
576.1840999999987
 21
495.926464487968
 31
0.0
  0
LINE
  5
4B5
330
1F
100
AcDbEntity
  8
受信機_上カバー
370
    18
100
AcDbLine
 10
581.3374999999988
 20
550.9929644879683
 30
0.0
 11
581.3374999999988
 21
533.982964487968
 31
0.0
  0
LINE
  5
4B6
330
1F
100
AcDbEntity
  8
受信機_上カバー
370
    18
100
AcDbLine
 10
570.8074999999982
 20
496.803964487968
 30
0.0
 11
570.8074999999982
 21
494.1039644879682
 31
0.0
  0
ARC
  5
4B7
330
1F
100
AcDbEntity
  8
受信機_上カバー
370
    18
100
AcDbCircle
 10
578.9074999999985
 20
550.9929644879683
 30
0.0
 40
0.405
100
AcDbArc
 50
0.0
 51
180.0
  0
LINE
  5
4B8
330
1F
100
AcDbEntity
  8
受信機_上カバー
370
    18
100
AcDbLine
 10
579.3124999999992
 20
550.9929644879683
 30
0.0
 11
579.3124999999983
 21
533.982964487968
 31
0.0
  0
LINE
  5
4B9
330
1F
100
AcDbEntity
  8
受信機_上カバー
370
    18
100
AcDbLine
 10
573.2374999999985
 20
550.9929644879683
 30
0.0
 11
573.2374999999985
 21
533.982964487968
 31
0.0
  0
LINE
  5
4BA
330
1F
100
AcDbEntity
  8
受信機_上カバー
370
    18
100
AcDbLine
 10
633.6199999999991
 20
552.0729644879682
 30
0.0
 11
633.6199999999982
 21
518.3229644879682
 31
0.0
  0
ARC
  5
4BB
330
1F
100
AcDbEntity
  8
受信機_上カバー
370
    18
100
AcDbCircle
 10
635.3074999999991
 20
550.9929644879683
 30
0.0
 40
0.405
100
AcDbArc
 50
0.0
 51
180.0
  0
ARC
  5
4BC
330
1F
100
AcDbEntity
  8
受信機_上カバー
370
    18
100
AcDbCircle
 10
618.0949999999985
 20
552.0729644879682
 30
0.0
 40
0.675
100
AcDbArc
 50
90.0
 51
180.0
  0
LINE
  5
4BD
330
1F
100
AcDbEntity
  8
受信機_上カバー
100
AcDbLine
 10
654.5449999999984
 20
550.7229644879678
 30
0.0
 11
654.5449999999984
 21
487.2729644879681
 31
0.0
  0
ARC
  5
4BE
330
1F
100
AcDbEntity
  8
受信機_上カバー
370
    18
100
AcDbCircle
 10
641.3824999999989
 20
533.982964487968
 30
0.0
 40
0.405
100
AcDbArc
 50
180.0
 51
0.0
  0
ARC
  5
4BF
330
1F
100
AcDbEntity
  8
受信機_上カバー
  6
Continuous
100
AcDbCircle
 10
618.0949999999985
 20
552.0729644879682
 30
0.0
 40
1.35
100
AcDbArc
 50
90.0
 51
180.0
  0
ARC
  5
4C0
330
1F
100
AcDbEntity
  8
受信機_上カバー
  6
Continuous
100
AcDbCircle
 10
630.2449999999991
 20
552.0729644879682
 30
0.0
 40
1.35
100
AcDbArc
 50
0.0
 51
90.0
  0
ARC
  5
4C1
330
1F
100
AcDbEntity
  8
受信機_上カバー
370
    18
100
AcDbCircle
 10
637.3324999999987
 20
550.9929644879683
 30
0.0
 40
0.405
100
AcDbArc
 50
0.0
 51
180.0
  0
LINE
  5
4C2
330
1F
100
AcDbEntity
  8
受信機_上カバー
  6
Continuous
100
AcDbLine
 10
634.2949999999984
 20
553.4229644879681
 30
0.0
 11
646.4449999999989
 21
553.4229644879681
 31
0.0
  0
LINE
  5
4C3
330
1F
100
AcDbEntity
  8
受信機_上カバー
370
    18
100
AcDbLine
 10
635.6449999999987
 20
494.4414644879683
 30
0.0
 11
637.6699999999984
 21
494.4414644879683
 31
0.0
  0
ARC
  5
4C4
330
1F
100
AcDbEntity
  8
受信機_上カバー
  6
Continuous
100
AcDbCircle
 10
618.0949999999985
 20
518.3229644879682
 30
0.0
 40
1.35
100
AcDbArc
 50
180.0
 51
270.0
  0
ARC
  5
4C5
330
1F
100
AcDbEntity
  8
受信機_上カバー
370
    18
100
AcDbCircle
 10
618.0949999999985
 20
518.3229644879682
 30
0.0
 40
0.675
100
AcDbArc
 50
180.0
 51
270.0
  0
ARC
  5
4C6
330
1F
100
AcDbEntity
  8
受信機_上カバー
370
    18
100
AcDbCircle
 10
643.4074999999985
 20
533.982964487968
 30
0.0
 40
0.405
100
AcDbArc
 50
180.0
 51
0.0
  0
LINE
  5
4C7
330
1F
100
AcDbEntity
  8
受信機_上カバー
100
AcDbLine
 10
609.9949999999991
 20
550.7229644879678
 30
0.0
 11
609.9949999999982
 21
487.2729644879681
 31
0.0
  0
ARC
  5
4C8
330
1F
100
AcDbEntity
  8
受信機_上カバー
  6
Continuous
100
AcDbCircle
 10
634.2949999999984
 20
518.3229644879682
 30
0.0
 40
1.35
100
AcDbArc
 50
180.0
 51
270.0
  0
ARC
  5
4C9
330
1F
100
AcDbEntity
  8
受信機_上カバー
  6
Continuous
100
AcDbCircle
 10
646.4449999999989
 20
518.3229644879682
 30
0.0
 40
1.35
100
AcDbArc
 50
270.0
 51
0.0
  0
LINE
  5
4CA
330
1F
100
AcDbEntity
  8
受信機_上カバー
  6
Continuous
100
AcDbLine
 10
618.0949999999985
 20
553.4229644879681
 30
0.0
 11
630.2449999999991
 21
553.4229644879681
 31
0.0
  0
LINE
  5
4CB
330
1F
100
AcDbEntity
  8
受信機_上カバー
370
    18
100
AcDbLine
 10
634.9699999999985
 20
500.421964487968
 30
0.0
 11
634.9699999999985
 21
493.671964487968
 31
0.0
  0
LINE
  5
4CC
330
1F
100
AcDbEntity
  8
受信機_上カバー
370
    18
100
AcDbLine
 10
640.9774999999983
 20
550.9929644879683
 30
0.0
 11
640.9774999999983
 21
533.982964487968
 31
0.0
  0
LINE
  5
4CD
330
1F
100
AcDbEntity
  8
受信機_上カバー
370
    18
100
AcDbLine
 10
636.927499999999
 20
550.9929644879683
 30
0.0
 11
636.9274999999981
 21
533.982964487968
 31
0.0
  0
LINE
  5
4CE
330
1F
100
AcDbEntity
  8
受信機_上カバー
  6
Continuous
100
AcDbLine
 10
615.3949999999987
 20
556.1229644879679
 30
0.0
 11
630.6989219848209
 21
556.1229644879679
 31
0.0
  0
ARC
  5
4CF
330
1F
100
AcDbEntity
  8
受信機_上カバー
  6
点線A
370
    18
100
AcDbCircle
 10
649.1449999999987
 20
487.2729644879681
 30
0.0
 40
5.4
100
AcDbArc
 50
353.172018451128
 51
0.0
  0
LINE
  5
4D0
330
1F
100
AcDbEntity
  8
受信機_上カバー
  6
Continuous
100
AcDbLine
 10
633.9010780151779
 20
556.1229644879679
 30
0.0
 11
642.2699999999987
 21
556.1229644879679
 31
0.0
  0
ARC
  5
4D1
330
1F
100
AcDbEntity
  8
受信機_上カバー
  6
点線A
370
    18
100
AcDbCircle
 10
615.3949999999987
 20
487.2729644879681
 30
0.0
 40
5.4
100
AcDbArc
 50
180.0
 51
186.8279815488719
  0
LINE
  5
4D2
330
1F
100
AcDbEntity
  8
受信機_上カバー
370
    18
100
AcDbLine
 10
639.762499999999
 20
550.9929644879683
 30
0.0
 11
639.762499999999
 21
533.982964487968
 31
0.0
  0
LINE
  5
4D3
330
1F
100
AcDbEntity
  8
受信機_上カバー
370
    18
100
AcDbLine
 10
630.9199999999984
 20
552.0729644879682
 30
0.0
 11
630.9199999999984
 21
518.3229644879682
 31
0.0
  0
ARC
  5
4D4
330
1F
100
AcDbEntity
  8
受信機_上カバー
370
    18
100
AcDbCircle
 10
646.4449999999989
 20
552.0729644879682
 30
0.0
 40
0.675
100
AcDbArc
 50
0.0
 51
90.0
  0
LINE
  5
4D5
330
1F
100
AcDbEntity
  8
受信機_上カバー
370
    18
100
AcDbLine
 10
617.4199999999984
 20
552.0729644879682
 30
0.0
 11
617.4199999999984
 21
518.3229644879682
 31
0.0
  0
LINE
  5
4D6
330
1F
100
AcDbEntity
  8
受信機_上カバー
370
    18
100
AcDbLine
 10
638.0074999999989
 20
496.803964487968
 30
0.0
 11
635.3074999999982
 21
496.803964487968
 31
0.0
  0
ARC
  5
4D7
330
1F
100
AcDbEntity
  8
受信機_上カバー
100
AcDbCircle
 10
615.3949999999987
 20
550.7229644879678
 30
0.0
 40
5.4
100
AcDbArc
 50
90.0
 51
180.0
  0
ARC
  5
4D8
330
1F
100
AcDbEntity
  8
受信機_上カバー
100
AcDbCircle
 10
649.1449999999987
 20
550.7229644879678
 30
0.0
 40
5.4
100
AcDbArc
 50
0.0
 51
90.0
  0
ARC
  5
4D9
330
1F
100
AcDbEntity
  8
受信機_上カバー
370
    18
100
AcDbCircle
 10
635.3074999999982
 20
533.982964487968
 30
0.0
 40
0.405
100
AcDbArc
 50
180.0
 51
0.0
  0
LINE
  5
4DA
330
1F
100
AcDbEntity
  8
受信機_上カバー
  6
Continuous
100
AcDbLine
 10
647.7949999999984
 20
552.0729644879682
 30
0.0
 11
647.7949999999984
 21
518.3229644879682
 31
0.0
  0
LINE
  5
4DB
330
1F
100
AcDbEntity
  8
受信機_上カバー
  6
Continuous
100
AcDbLine
 10
631.5949999999985
 20
552.0729644879682
 30
0.0
 11
631.5949999999985
 21
518.3229644879682
 31
0.0
  0
LINE
  5
4DC
330
1F
100
AcDbEntity
  8
受信機_上カバー
370
    18
100
AcDbLine
 10
638.0074999999989
 20
494.1039644879682
 30
0.0
 11
638.0074999999989
 21
496.803964487968
 31
0.0
  0
LINE
  5
4DD
330
1F
100
AcDbEntity
  8
受信機_上カバー
370
    18
100
AcDbLine
 10
643.0024999999988
 20
550.9929644879683
 30
0.0
 11
643.0024999999988
 21
533.982964487968
 31
0.0
  0
LINE
  5
4DE
330
1F
100
AcDbEntity
  8
受信機_上カバー
370
    18
100
AcDbLine
 10
647.1199999999991
 20
552.0729644879682
 30
0.0
 11
647.1199999999982
 21
518.3229644879682
 31
0.0
  0
LINE
  5
4DF
330
1F
100
AcDbEntity
  8
受信機_上カバー
370
    18
100
AcDbLine
 10
635.6449999999987
 20
495.7914644879682
 30
0.0
 11
637.6699999999984
 21
495.7914644879682
 31
0.0
  0
LINE
  5
4E0
330
1F
100
AcDbEntity
  8
受信機_上カバー
370
    18
100
AcDbLine
 10
638.3449999999985
 20
493.671964487968
 30
0.0
 11
638.3449999999985
 21
500.421964487968
 31
0.0
  0
LINE
  5
4E1
330
1F
100
AcDbEntity
  8
受信機_上カバー
370
    18
100
AcDbLine
 10
634.2949999999984
 20
517.647964487968
 30
0.0
 11
646.4449999999989
 21
517.647964487968
 31
0.0
  0
ARC
  5
4E2
330
1F
100
AcDbEntity
  8
受信機_上カバー
370
    18
100
AcDbCircle
 10
637.3324999999987
 20
533.982964487968
 30
0.0
 40
0.405
100
AcDbArc
 50
180.0
 51
0.0
  0
LINE
  5
4E3
330
1F
100
AcDbEntity
  8
受信機_上カバー
  6
Continuous
100
AcDbLine
 10
632.9449999999989
 20
552.0729644879682
 30
0.0
 11
632.9449999999989
 21
518.3229644879682
 31
0.0
  0
LINE
  5
4E4
330
1F
100
AcDbEntity
  8
受信機_上カバー
370
    18
100
AcDbLine
 10
618.0949999999985
 20
552.7479644879679
 30
0.0
 11
630.2449999999991
 21
552.7479644879679
 31
0.0
  0
LINE
  5
4E5
330
1F
100
AcDbEntity
  8
受信機_上カバー
370
    18
100
AcDbLine
 10
635.3074999999982
 20
494.1039644879682
 30
0.0
 11
638.0074999999989
 21
494.1039644879682
 31
0.0
  0
LINE
  5
4E6
330
1F
100
AcDbEntity
  8
受信機_上カバー
370
    18
100
AcDbLine
 10
638.9524999999986
 20
550.9929644879683
 30
0.0
 11
638.9524999999986
 21
533.982964487968
 31
0.0
  0
ARC
  5
4E7
330
1F
100
AcDbEntity
  8
受信機_上カバー
370
    18
100
AcDbCircle
 10
639.3574999999984
 20
550.9929644879683
 30
0.0
 40
0.405
100
AcDbArc
 50
0.0
 51
180.0
  0
LINE
  5
4E8
330
1F
100
AcDbEntity
  8
受信機_上カバー
  6
Continuous
100
AcDbLine
 10
616.7449999999991
 20
552.0729644879682
 30
0.0
 11
616.7449999999982
 21
518.3229644879682
 31
0.0
  0
ARC
  5
4E9
330
1F
100
AcDbEntity
  8
受信機_上カバー
  6
Continuous
100
AcDbCircle
 10
634.2949999999984
 20
552.0729644879682
 30
0.0
 40
1.35
100
AcDbArc
 50
90.0
 51
180.0
  0
LINE
  5
4EA
330
1F
100
AcDbEntity
  8
受信機_上カバー
370
    18
100
AcDbLine
 10
645.0274999999984
 20
550.9929644879683
 30
0.0
 11
645.0274999999984
 21
533.982964487968
 31
0.0
  0
TEXT
  5
4EB
330
1F
100
AcDbEntity
  8
受信機_上カバー
100
AcDbText
 10
640.1201782226562
 20
494.1567678740531
 30
0.0
 40
1.558014840790714
  1
L
 41
1.000000000000004
  7
MS Gothic
 11
640.1201782226562
 21
495.7147827148438
 31
0.0
100
AcDbText
 73
     3
  0
ARC
  5
4EC
330
1F
100
AcDbEntity
  8
受信機_上カバー
370
    18
100
AcDbCircle
 10
634.2949999999984
 20
518.3229644879682
 30
0.0
 40
0.675
100
AcDbArc
 50
180.0
 51
270.0
  0
ARC
  5
4ED
330
1F
100
AcDbEntity
  8
受信機_上カバー
370
    18
100
AcDbCircle
 10
646.4449999999989
 20
518.3229644879682
 30
0.0
 40
0.675
100
AcDbArc
 50
270.0
 51
0.0
  0
LINE
  5
4EE
330
1F
100
AcDbEntity
  8
受信機_上カバー
370
    18
100
AcDbLine
 10
638.3449999999985
 20
500.421964487968
 30
0.0
 11
634.9699999999985
 21
500.421964487968
 31
0.0
  0
ARC
  5
4EF
330
1F
100
AcDbEntity
  8
受信機_上カバー
370
    18
100
AcDbCircle
 10
630.2449999999991
 20
552.0729644879682
 30
0.0
 40
0.675
100
AcDbArc
 50
0.0
 51
90.0
  0
ARC
  5
4F0
330
1F
100
AcDbEntity
  8
受信機_上カバー
370
    18
100
AcDbCircle
 10
630.2449999999982
 20
518.3229644879682
 30
0.0
 40
0.675
100
AcDbArc
 50
270.0
 51
0.0
  0
LINE
  5
4F1
330
1F
100
AcDbEntity
  8
受信機_上カバー
370
    18
100
AcDbLine
 10
635.7124999999988
 20
550.9929644879683
 30
0.0
 11
635.7124999999988
 21
533.982964487968
 31
0.0
  0
TEXT
  5
4F2
330
1F
100
AcDbEntity
  8
受信機_上カバー
100
AcDbText
 10
625.0610961914062
 20
502.8796849059584
 30
0.0
 40
1.038466949510322
  1
TONE ADJUSTMENT
 41
0.9999996605042548
  7
MS Gothic
 11
625.0610961914062
 21
503.9181518554688
 31
0.0
100
AcDbText
 73
     3
  0
LINE
  5
4F3
330
1F
100
AcDbEntity
  8
受信機_上カバー
370
    18
100
AcDbLine
 10
634.9024999999984
 20
550.9929644879683
 30
0.0
 11
634.9024999999984
 21
533.982964487968
 31
0.0
  0
LINE
  5
4F4
330
1F
100
AcDbEntity
  8
受信機_上カバー
370
    18
100
AcDbLine
 10
634.2949999999984
 20
552.7479644879679
 30
0.0
 11
646.4449999999989
 21
552.7479644879679
 31
0.0
  0
ARC
  5
4F5
330
1F
100
AcDbEntity
  8
受信機_上カバー
370
    18
100
AcDbCircle
 10
645.4324999999991
 20
550.9929644879683
 30
0.0
 40
0.405
100
AcDbArc
 50
0.0
 51
180.0
  0
LINE
  5
4F6
330
1F
100
AcDbEntity
  8
受信機_上カバー
  6
Continuous
100
AcDbLine
 10
618.0949999999985
 20
516.9729644879678
 30
0.0
 11
630.2449999999982
 21
516.9729644879678
 31
0.0
  0
LWPOLYLINE
  5
4F7
330
1F
100
AcDbEntity
  8
受信機_上カバー
100
AcDbPolyline
 90
        5
 70
     0
 43
0.0
 10
654.5449999999984
 20
509.372964487968
 10
654.5449999999984
 20
513.3729644879679
 10
655.5449999999984
 20
513.3729644879679
 10
655.5449999999984
 20
509.372964487968
 10
654.5449999999984
 20
509.372964487968
  0
LINE
  5
4F8
330
1F
100
AcDbEntity
  8
受信機_上カバー
370
    18
100
AcDbLine
 10
634.9699999999985
 20
493.671964487968
 30
0.0
 11
638.3449999999985
 21
493.671964487968
 31
0.0
  0
LINE
  5
4F9
330
1F
100
AcDbEntity
  8
受信機_上カバー
  6
Continuous
100
AcDbLine
 10
634.2949999999984
 20
516.9729644879678
 30
0.0
 11
646.4449999999989
 21
516.9729644879678
 31
0.0
  0
ARC
  5
4FA
330
1F
100
AcDbEntity
  8
受信機_上カバー
370
    18
100
AcDbCircle
 10
641.3824999999989
 20
550.9929644879683
 30
0.0
 40
0.405
100
AcDbArc
 50
0.0
 51
180.0
  0
ARC
  5
4FB
330
1F
100
AcDbEntity
  8
受信機_上カバー
370
    18
100
AcDbCircle
 10
649.1603697284487
 20
550.6816821464647
 30
0.0
 40
5.727213353161945
100
AcDbArc
 50
340.0823597551569
 51
108.1811016183447
  0
ARC
  5
4FC
330
1F
100
AcDbEntity
  8
受信機_上カバー
370
    18
100
AcDbCircle
 10
634.2949999999984
 20
552.0729644879682
 30
0.0
 40
0.675
100
AcDbArc
 50
90.0
 51
180.0
  0
LINE
  5
4FD
330
1F
100
AcDbEntity
  8
受信機_上カバー
370
    18
100
AcDbLine
 10
635.6449999999987
 20
495.116464487968
 30
0.0
 11
637.6699999999984
 21
495.116464487968
 31
0.0
  0
LINE
  5
4FE
330
1F
100
AcDbEntity
  8
受信機_上カバー
  6
Continuous
100
AcDbLine
 10
642.2699999999987
 20
556.1229644879679
 30
0.0
 11
649.1449999999987
 21
556.1229644879679
 31
0.0
  0
ARC
  5
4FF
330
1F
100
AcDbEntity
  8
受信機_上カバー
  6
Continuous
100
AcDbCircle
 10
630.2449999999982
 20
518.3229644879682
 30
0.0
 40
1.35
100
AcDbArc
 50
270.0
 51
0.0
  0
LINE
  5
500
330
1F
100
AcDbEntity
  8
受信機_上カバー
370
    18
100
AcDbLine
 10
635.6449999999987
 20
496.4664644879679
 30
0.0
 11
637.6699999999984
 21
496.4664644879679
 31
0.0
  0
ARC
  5
501
330
1F
100
AcDbEntity
  8
受信機_上カバー
370
    18
100
AcDbCircle
 10
645.4324999999982
 20
533.982964487968
 30
0.0
 40
0.405
100
AcDbArc
 50
180.0
 51
0.0
  0
ARC
  5
502
330
1F
100
AcDbEntity
  8
受信機_上カバー
370
    18
100
AcDbCircle
 10
639.3574999999984
 20
533.982964487968
 30
0.0
 40
0.405
100
AcDbArc
 50
180.0
 51
0.0
  0
ARC
  5
503
330
1F
100
AcDbEntity
  8
受信機_上カバー
  6
Continuous
100
AcDbCircle
 10
646.4449999999989
 20
552.0729644879682
 30
0.0
 40
1.35
100
AcDbArc
 50
0.0
 51
90.0
  0
TEXT
  5
504
330
1F
100
AcDbEntity
  8
受信機_上カバー
100
AcDbText
 10
640.1875610351562
 20
498.9403747208488
 30
0.0
 40
1.557855259619975
  1
H
 41
1.000000000000004
  7
MS Gothic
 11
640.1875610351562
 21
500.4982299804688
 31
0.0
100
AcDbText
 73
     3
  0
LINE
  5
505
330
1F
100
AcDbEntity
  8
受信機_上カバー
370
    18
100
AcDbLine
 10
618.0949999999985
 20
517.647964487968
 30
0.0
 11
630.2449999999982
 21
517.647964487968
 31
0.0
  0
LINE
  5
506
330
1F
100
AcDbEntity
  8
受信機_上カバー
370
    18
100
AcDbLine
 10
641.7874999999987
 20
550.9929644879683
 30
0.0
 11
641.7874999999987
 21
533.982964487968
 31
0.0
  0
LINE
  5
507
330
1F
100
AcDbEntity
  8
受信機_上カバー
370
    18
100
AcDbLine
 10
640.6840999999987
 20
498.2394644879681
 30
0.0
 11
640.6840999999987
 21
495.926464487968
 31
0.0
  0
LINE
  5
508
330
1F
100
AcDbEntity
  8
受信機_上カバー
370
    18
100
AcDbLine
 10
645.8374999999988
 20
550.9929644879683
 30
0.0
 11
645.8374999999988
 21
533.982964487968
 31
0.0
  0
LINE
  5
509
330
1F
100
AcDbEntity
  8
受信機_上カバー
370
    18
100
AcDbLine
 10
635.3074999999982
 20
496.803964487968
 30
0.0
 11
635.3074999999982
 21
494.1039644879682
 31
0.0
  0
ARC
  5
50A
330
1F
100
AcDbEntity
  8
受信機_上カバー
370
    18
100
AcDbCircle
 10
643.4074999999985
 20
550.9929644879683
 30
0.0
 40
0.405
100
AcDbArc
 50
0.0
 51
180.0
  0
LINE
  5
50B
330
1F
100
AcDbEntity
  8
受信機_上カバー
370
    18
100
AcDbLine
 10
643.8124999999992
 20
550.9929644879683
 30
0.0
 11
643.8124999999983
 21
533.982964487968
 31
0.0
  0
LINE
  5
50C
330
1F
100
AcDbEntity
  8
受信機_上カバー
370
    18
100
AcDbLine
 10
637.7374999999985
 20
550.9929644879683
 30
0.0
 11
637.7374999999985
 21
533.982964487968
 31
0.0
  0
LINE
  5
50D
330
1F
100
AcDbEntity
  8
受信機_上カバー
370
    18
100
AcDbLine
 10
698.1199999999991
 20
552.0729644879682
 30
0.0
 11
698.1199999999982
 21
518.3229644879682
 31
0.0
  0
ARC
  5
50E
330
1F
100
AcDbEntity
  8
受信機_上カバー
370
    18
100
AcDbCircle
 10
699.8074999999991
 20
550.9929644879683
 30
0.0
 40
0.405
100
AcDbArc
 50
0.0
 51
180.0
  0
ARC
  5
50F
330
1F
100
AcDbEntity
  8
受信機_上カバー
370
    18
100
AcDbCircle
 10
682.5949999999985
 20
552.0729644879682
 30
0.0
 40
0.675
100
AcDbArc
 50
90.0
 51
180.0
  0
LINE
  5
510
330
1F
100
AcDbEntity
  8
受信機_上カバー
100
AcDbLine
 10
719.0449999999984
 20
550.7229644879678
 30
0.0
 11
719.0449999999984
 21
487.2729644879681
 31
0.0
  0
ARC
  5
511
330
1F
100
AcDbEntity
  8
受信機_上カバー
370
    18
100
AcDbCircle
 10
705.8824999999989
 20
533.982964487968
 30
0.0
 40
0.405
100
AcDbArc
 50
180.0
 51
0.0
  0
ARC
  5
512
330
1F
100
AcDbEntity
  8
受信機_上カバー
  6
Continuous
100
AcDbCircle
 10
682.5949999999985
 20
552.0729644879682
 30
0.0
 40
1.35
100
AcDbArc
 50
90.0
 51
180.0
  0
ARC
  5
513
330
1F
100
AcDbEntity
  8
受信機_上カバー
  6
Continuous
100
AcDbCircle
 10
694.7449999999991
 20
552.0729644879682
 30
0.0
 40
1.35
100
AcDbArc
 50
0.0
 51
90.0
  0
ARC
  5
514
330
1F
100
AcDbEntity
  8
受信機_上カバー
370
    18
100
AcDbCircle
 10
701.8324999999987
 20
550.9929644879683
 30
0.0
 40
0.405
100
AcDbArc
 50
0.0
 51
180.0
  0
LINE
  5
515
330
1F
100
AcDbEntity
  8
受信機_上カバー
  6
Continuous
100
AcDbLine
 10
698.7949999999984
 20
553.4229644879681
 30
0.0
 11
710.9449999999989
 21
553.4229644879681
 31
0.0
  0
LINE
  5
516
330
1F
100
AcDbEntity
  8
受信機_上カバー
370
    18
100
AcDbLine
 10
700.1449999999987
 20
494.4414644879683
 30
0.0
 11
702.1699999999984
 21
494.4414644879683
 31
0.0
  0
ARC
  5
517
330
1F
100
AcDbEntity
  8
受信機_上カバー
  6
Continuous
100
AcDbCircle
 10
682.5949999999985
 20
518.3229644879682
 30
0.0
 40
1.35
100
AcDbArc
 50
180.0
 51
270.0
  0
ARC
  5
518
330
1F
100
AcDbEntity
  8
受信機_上カバー
370
    18
100
AcDbCircle
 10
682.5949999999985
 20
518.3229644879682
 30
0.0
 40
0.675
100
AcDbArc
 50
180.0
 51
270.0
  0
ARC
  5
519
330
1F
100
AcDbEntity
  8
受信機_上カバー
370
    18
100
AcDbCircle
 10
707.9074999999985
 20
533.982964487968
 30
0.0
 40
0.405
100
AcDbArc
 50
180.0
 51
0.0
  0
LINE
  5
51A
330
1F
100
AcDbEntity
  8
受信機_上カバー
100
AcDbLine
 10
674.4949999999991
 20
550.7229644879678
 30
0.0
 11
674.4949999999982
 21
487.2729644879681
 31
0.0
  0
ARC
  5
51B
330
1F
100
AcDbEntity
  8
受信機_上カバー
  6
Continuous
100
AcDbCircle
 10
698.7949999999984
 20
518.3229644879682
 30
0.0
 40
1.35
100
AcDbArc
 50
180.0
 51
270.0
  0
ARC
  5
51C
330
1F
100
AcDbEntity
  8
受信機_上カバー
  6
Continuous
100
AcDbCircle
 10
710.9449999999989
 20
518.3229644879682
 30
0.0
 40
1.35
100
AcDbArc
 50
270.0
 51
0.0
  0
LINE
  5
51D
330
1F
100
AcDbEntity
  8
受信機_上カバー
  6
Continuous
100
AcDbLine
 10
682.5949999999985
 20
553.4229644879681
 30
0.0
 11
694.7449999999991
 21
553.4229644879681
 31
0.0
  0
LINE
  5
51E
330
1F
100
AcDbEntity
  8
受信機_上カバー
370
    18
100
AcDbLine
 10
699.4699999999985
 20
500.421964487968
 30
0.0
 11
699.4699999999985
 21
493.671964487968
 31
0.0
  0
LINE
  5
51F
330
1F
100
AcDbEntity
  8
受信機_上カバー
370
    18
100
AcDbLine
 10
705.4774999999983
 20
550.9929644879683
 30
0.0
 11
705.4774999999983
 21
533.982964487968
 31
0.0
  0
LINE
  5
520
330
1F
100
AcDbEntity
  8
受信機_上カバー
370
    18
100
AcDbLine
 10
701.427499999999
 20
550.9929644879683
 30
0.0
 11
701.4274999999981
 21
533.982964487968
 31
0.0
  0
LINE
  5
521
330
1F
100
AcDbEntity
  8
受信機_上カバー
  6
Continuous
100
AcDbLine
 10
679.8949999999987
 20
556.1229644879679
 30
0.0
 11
695.1989219848209
 21
556.1229644879679
 31
0.0
  0
ARC
  5
522
330
1F
100
AcDbEntity
  8
受信機_上カバー
  6
点線A
370
    18
100
AcDbCircle
 10
713.6449999999987
 20
487.2729644879681
 30
0.0
 40
5.4
100
AcDbArc
 50
353.172018451128
 51
0.0
  0
LINE
  5
523
330
1F
100
AcDbEntity
  8
受信機_上カバー
  6
Continuous
100
AcDbLine
 10
698.4010780151779
 20
556.1229644879679
 30
0.0
 11
706.7699999999987
 21
556.1229644879679
 31
0.0
  0
ARC
  5
524
330
1F
100
AcDbEntity
  8
受信機_上カバー
  6
点線A
370
    18
100
AcDbCircle
 10
679.8949999999987
 20
487.2729644879681
 30
0.0
 40
5.4
100
AcDbArc
 50
180.0
 51
186.8279815488719
  0
LINE
  5
525
330
1F
100
AcDbEntity
  8
受信機_上カバー
370
    18
100
AcDbLine
 10
704.262499999999
 20
550.9929644879683
 30
0.0
 11
704.262499999999
 21
533.982964487968
 31
0.0
  0
LINE
  5
526
330
1F
100
AcDbEntity
  8
受信機_上カバー
370
    18
100
AcDbLine
 10
695.4199999999984
 20
552.0729644879682
 30
0.0
 11
695.4199999999984
 21
518.3229644879682
 31
0.0
  0
ARC
  5
527
330
1F
100
AcDbEntity
  8
受信機_上カバー
370
    18
100
AcDbCircle
 10
710.9449999999989
 20
552.0729644879682
 30
0.0
 40
0.675
100
AcDbArc
 50
0.0
 51
90.0
  0
LINE
  5
528
330
1F
100
AcDbEntity
  8
受信機_上カバー
370
    18
100
AcDbLine
 10
681.9199999999984
 20
552.0729644879682
 30
0.0
 11
681.9199999999984
 21
518.3229644879682
 31
0.0
  0
LINE
  5
529
330
1F
100
AcDbEntity
  8
受信機_上カバー
370
    18
100
AcDbLine
 10
702.5074999999989
 20
496.803964487968
 30
0.0
 11
699.8074999999982
 21
496.803964487968
 31
0.0
  0
ARC
  5
52A
330
1F
100
AcDbEntity
  8
受信機_上カバー
100
AcDbCircle
 10
679.8949999999987
 20
550.7229644879678
 30
0.0
 40
5.4
100
AcDbArc
 50
90.0
 51
180.0
  0
ARC
  5
52B
330
1F
100
AcDbEntity
  8
受信機_上カバー
100
AcDbCircle
 10
713.6449999999987
 20
550.7229644879678
 30
0.0
 40
5.4
100
AcDbArc
 50
0.0
 51
90.0
  0
ARC
  5
52C
330
1F
100
AcDbEntity
  8
受信機_上カバー
370
    18
100
AcDbCircle
 10
699.8074999999982
 20
533.982964487968
 30
0.0
 40
0.405
100
AcDbArc
 50
180.0
 51
0.0
  0
LINE
  5
52D
330
1F
100
AcDbEntity
  8
受信機_上カバー
  6
Continuous
100
AcDbLine
 10
712.2949999999984
 20
552.0729644879682
 30
0.0
 11
712.2949999999984
 21
518.3229644879682
 31
0.0
  0
LINE
  5
52E
330
1F
100
AcDbEntity
  8
受信機_上カバー
  6
Continuous
100
AcDbLine
 10
696.0949999999985
 20
552.0729644879682
 30
0.0
 11
696.0949999999985
 21
518.3229644879682
 31
0.0
  0
LINE
  5
52F
330
1F
100
AcDbEntity
  8
受信機_上カバー
370
    18
100
AcDbLine
 10
702.5074999999989
 20
494.1039644879682
 30
0.0
 11
702.5074999999989
 21
496.803964487968
 31
0.0
  0
LINE
  5
530
330
1F
100
AcDbEntity
  8
受信機_上カバー
370
    18
100
AcDbLine
 10
707.5024999999988
 20
550.9929644879683
 30
0.0
 11
707.5024999999988
 21
533.982964487968
 31
0.0
  0
LINE
  5
531
330
1F
100
AcDbEntity
  8
受信機_上カバー
370
    18
100
AcDbLine
 10
711.6199999999991
 20
552.0729644879682
 30
0.0
 11
711.6199999999982
 21
518.3229644879682
 31
0.0
  0
LINE
  5
532
330
1F
100
AcDbEntity
  8
受信機_上カバー
370
    18
100
AcDbLine
 10
700.1449999999987
 20
495.7914644879682
 30
0.0
 11
702.1699999999984
 21
495.7914644879682
 31
0.0
  0
LINE
  5
533
330
1F
100
AcDbEntity
  8
受信機_上カバー
370
    18
100
AcDbLine
 10
702.8449999999985
 20
493.671964487968
 30
0.0
 11
702.8449999999985
 21
500.421964487968
 31
0.0
  0
LINE
  5
534
330
1F
100
AcDbEntity
  8
受信機_上カバー
370
    18
100
AcDbLine
 10
698.7949999999984
 20
517.647964487968
 30
0.0
 11
710.9449999999989
 21
517.647964487968
 31
0.0
  0
ARC
  5
535
330
1F
100
AcDbEntity
  8
受信機_上カバー
370
    18
100
AcDbCircle
 10
701.8324999999987
 20
533.982964487968
 30
0.0
 40
0.405
100
AcDbArc
 50
180.0
 51
0.0
  0
LINE
  5
536
330
1F
100
AcDbEntity
  8
受信機_上カバー
  6
Continuous
100
AcDbLine
 10
697.4449999999989
 20
552.0729644879682
 30
0.0
 11
697.4449999999989
 21
518.3229644879682
 31
0.0
  0
LINE
  5
537
330
1F
100
AcDbEntity
  8
受信機_上カバー
370
    18
100
AcDbLine
 10
682.5949999999985
 20
552.7479644879679
 30
0.0
 11
694.7449999999991
 21
552.7479644879679
 31
0.0
  0
LINE
  5
538
330
1F
100
AcDbEntity
  8
受信機_上カバー
370
    18
100
AcDbLine
 10
699.8074999999982
 20
494.1039644879682
 30
0.0
 11
702.5074999999989
 21
494.1039644879682
 31
0.0
  0
LINE
  5
539
330
1F
100
AcDbEntity
  8
受信機_上カバー
370
    18
100
AcDbLine
 10
703.4524999999986
 20
550.9929644879683
 30
0.0
 11
703.4524999999986
 21
533.982964487968
 31
0.0
  0
ARC
  5
53A
330
1F
100
AcDbEntity
  8
受信機_上カバー
370
    18
100
AcDbCircle
 10
703.8574999999984
 20
550.9929644879683
 30
0.0
 40
0.405
100
AcDbArc
 50
0.0
 51
180.0
  0
LINE
  5
53B
330
1F
100
AcDbEntity
  8
受信機_上カバー
  6
Continuous
100
AcDbLine
 10
681.2449999999991
 20
552.0729644879682
 30
0.0
 11
681.2449999999982
 21
518.3229644879682
 31
0.0
  0
ARC
  5
53C
330
1F
100
AcDbEntity
  8
受信機_上カバー
  6
Continuous
100
AcDbCircle
 10
698.7949999999984
 20
552.0729644879682
 30
0.0
 40
1.35
100
AcDbArc
 50
90.0
 51
180.0
  0
LINE
  5
53D
330
1F
100
AcDbEntity
  8
受信機_上カバー
370
    18
100
AcDbLine
 10
709.5274999999984
 20
550.9929644879683
 30
0.0
 11
709.5274999999984
 21
533.982964487968
 31
0.0
  0
TEXT
  5
53E
330
1F
100
AcDbEntity
  8
受信機_上カバー
100
AcDbText
 10
704.6201782226562
 20
494.1567678740531
 30
0.0
 40
1.558014840790714
  1
L
 41
1.000000000000004
  7
MS Gothic
 11
704.6201782226562
 21
495.7147827148438
 31
0.0
100
AcDbText
 73
     3
  0
ARC
  5
53F
330
1F
100
AcDbEntity
  8
受信機_上カバー
370
    18
100
AcDbCircle
 10
698.7949999999984
 20
518.3229644879682
 30
0.0
 40
0.675
100
AcDbArc
 50
180.0
 51
270.0
  0
ARC
  5
540
330
1F
100
AcDbEntity
  8
受信機_上カバー
370
    18
100
AcDbCircle
 10
710.9449999999989
 20
518.3229644879682
 30
0.0
 40
0.675
100
AcDbArc
 50
270.0
 51
0.0
  0
LINE
  5
541
330
1F
100
AcDbEntity
  8
受信機_上カバー
370
    18
100
AcDbLine
 10
702.8449999999985
 20
500.421964487968
 30
0.0
 11
699.4699999999985
 21
500.421964487968
 31
0.0
  0
ARC
  5
542
330
1F
100
AcDbEntity
  8
受信機_上カバー
370
    18
100
AcDbCircle
 10
694.7449999999991
 20
552.0729644879682
 30
0.0
 40
0.675
100
AcDbArc
 50
0.0
 51
90.0
  0
ARC
  5
543
330
1F
100
AcDbEntity
  8
受信機_上カバー
370
    18
100
AcDbCircle
 10
694.7449999999982
 20
518.3229644879682
 30
0.0
 40
0.675
100
AcDbArc
 50
270.0
 51
0.0
  0
LINE
  5
544
330
1F
100
AcDbEntity
  8
受信機_上カバー
370
    18
100
AcDbLine
 10
700.2124999999988
 20
550.9929644879683
 30
0.0
 11
700.2124999999988
 21
533.982964487968
 31
0.0
  0
TEXT
  5
545
330
1F
100
AcDbEntity
  8
受信機_上カバー
100
AcDbText
 10
689.5610961914062
 20
502.8796849059584
 30
0.0
 40
1.038466949510322
  1
TONE ADJUSTMENT
 41
0.9999996605042548
  7
MS Gothic
 11
689.5610961914062
 21
503.9181518554688
 31
0.0
100
AcDbText
 73
     3
  0
LINE
  5
546
330
1F
100
AcDbEntity
  8
受信機_上カバー
370
    18
100
AcDbLine
 10
699.4024999999984
 20
550.9929644879683
 30
0.0
 11
699.4024999999984
 21
533.982964487968
 31
0.0
  0
LINE
  5
547
330
1F
100
AcDbEntity
  8
受信機_上カバー
370
    18
100
AcDbLine
 10
698.7949999999984
 20
552.7479644879679
 30
0.0
 11
710.9449999999989
 21
552.7479644879679
 31
0.0
  0
ARC
  5
548
330
1F
100
AcDbEntity
  8
受信機_上カバー
370
    18
100
AcDbCircle
 10
709.9324999999991
 20
550.9929644879683
 30
0.0
 40
0.405
100
AcDbArc
 50
0.0
 51
180.0
  0
LINE
  5
549
330
1F
100
AcDbEntity
  8
受信機_上カバー
  6
Continuous
100
AcDbLine
 10
682.5949999999985
 20
516.9729644879678
 30
0.0
 11
694.7449999999982
 21
516.9729644879678
 31
0.0
  0
LWPOLYLINE
  5
54A
330
1F
100
AcDbEntity
  8
受信機_上カバー
100
AcDbPolyline
 90
        5
 70
     0
 43
0.0
 10
719.0449999999984
 20
509.372964487968
 10
719.0449999999984
 20
513.3729644879679
 10
720.0449999999984
 20
513.3729644879679
 10
720.0449999999984
 20
509.372964487968
 10
719.0449999999984
 20
509.372964487968
  0
LINE
  5
54B
330
1F
100
AcDbEntity
  8
受信機_上カバー
370
    18
100
AcDbLine
 10
699.4699999999985
 20
493.671964487968
 30
0.0
 11
702.8449999999985
 21
493.671964487968
 31
0.0
  0
LINE
  5
54C
330
1F
100
AcDbEntity
  8
受信機_上カバー
  6
Continuous
100
AcDbLine
 10
698.7949999999984
 20
516.9729644879678
 30
0.0
 11
710.9449999999989
 21
516.9729644879678
 31
0.0
  0
ARC
  5
54D
330
1F
100
AcDbEntity
  8
受信機_上カバー
370
    18
100
AcDbCircle
 10
705.8824999999989
 20
550.9929644879683
 30
0.0
 40
0.405
100
AcDbArc
 50
0.0
 51
180.0
  0
ARC
  5
54E
330
1F
100
AcDbEntity
  8
受信機_上カバー
370
    18
100
AcDbCircle
 10
713.6603697284487
 20
550.6816821464647
 30
0.0
 40
5.727213353161945
100
AcDbArc
 50
340.0823597551569
 51
108.1811016183447
  0
ARC
  5
54F
330
1F
100
AcDbEntity
  8
受信機_上カバー
370
    18
100
AcDbCircle
 10
698.7949999999984
 20
552.0729644879682
 30
0.0
 40
0.675
100
AcDbArc
 50
90.0
 51
180.0
  0
LINE
  5
550
330
1F
100
AcDbEntity
  8
受信機_上カバー
370
    18
100
AcDbLine
 10
700.1449999999987
 20
495.116464487968
 30
0.0
 11
702.1699999999984
 21
495.116464487968
 31
0.0
  0
LINE
  5
551
330
1F
100
AcDbEntity
  8
受信機_上カバー
  6
Continuous
100
AcDbLine
 10
706.7699999999987
 20
556.1229644879679
 30
0.0
 11
713.6449999999987
 21
556.1229644879679
 31
0.0
  0
ARC
  5
552
330
1F
100
AcDbEntity
  8
受信機_上カバー
  6
Continuous
100
AcDbCircle
 10
694.7449999999982
 20
518.3229644879682
 30
0.0
 40
1.35
100
AcDbArc
 50
270.0
 51
0.0
  0
LINE
  5
553
330
1F
100
AcDbEntity
  8
受信機_上カバー
370
    18
100
AcDbLine
 10
700.1449999999987
 20
496.4664644879679
 30
0.0
 11
702.1699999999984
 21
496.4664644879679
 31
0.0
  0
ARC
  5
554
330
1F
100
AcDbEntity
  8
受信機_上カバー
370
    18
100
AcDbCircle
 10
709.9324999999982
 20
533.982964487968
 30
0.0
 40
0.405
100
AcDbArc
 50
180.0
 51
0.0
  0
ARC
  5
555
330
1F
100
AcDbEntity
  8
受信機_上カバー
370
    18
100
AcDbCircle
 10
703.8574999999984
 20
533.982964487968
 30
0.0
 40
0.405
100
AcDbArc
 50
180.0
 51
0.0
  0
ARC
  5
556
330
1F
100
AcDbEntity
  8
受信機_上カバー
  6
Continuous
100
AcDbCircle
 10
710.9449999999989
 20
552.0729644879682
 30
0.0
 40
1.35
100
AcDbArc
 50
0.0
 51
90.0
  0
TEXT
  5
557
330
1F
100
AcDbEntity
  8
受信機_上カバー
100
AcDbText
 10
704.6875610351562
 20
498.9403747208488
 30
0.0
 40
1.557855259619975
  1
H
 41
1.000000000000004
  7
MS Gothic
 11
704.6875610351562
 21
500.4982299804688
 31
0.0
100
AcDbText
 73
     3
  0
LINE
  5
558
330
1F
100
AcDbEntity
  8
受信機_上カバー
370
    18
100
AcDbLine
 10
682.5949999999985
 20
517.647964487968
 30
0.0
 11
694.7449999999982
 21
517.647964487968
 31
0.0
  0
LINE
  5
559
330
1F
100
AcDbEntity
  8
受信機_上カバー
370
    18
100
AcDbLine
 10
706.2874999999987
 20
550.9929644879683
 30
0.0
 11
706.2874999999987
 21
533.982964487968
 31
0.0
  0
LINE
  5
55A
330
1F
100
AcDbEntity
  8
受信機_上カバー
370
    18
100
AcDbLine
 10
705.1840999999987
 20
498.2394644879681
 30
0.0
 11
705.1840999999987
 21
495.926464487968
 31
0.0
  0
LINE
  5
55B
330
1F
100
AcDbEntity
  8
受信機_上カバー
370
    18
100
AcDbLine
 10
710.3374999999988
 20
550.9929644879683
 30
0.0
 11
710.3374999999988
 21
533.982964487968
 31
0.0
  0
LINE
  5
55C
330
1F
100
AcDbEntity
  8
受信機_上カバー
370
    18
100
AcDbLine
 10
699.8074999999982
 20
496.803964487968
 30
0.0
 11
699.8074999999982
 21
494.1039644879682
 31
0.0
  0
ARC
  5
55D
330
1F
100
AcDbEntity
  8
受信機_上カバー
370
    18
100
AcDbCircle
 10
707.9074999999985
 20
550.9929644879683
 30
0.0
 40
0.405
100
AcDbArc
 50
0.0
 51
180.0
  0
LINE
  5
55E
330
1F
100
AcDbEntity
  8
受信機_上カバー
370
    18
100
AcDbLine
 10
708.3124999999992
 20
550.9929644879683
 30
0.0
 11
708.3124999999983
 21
533.982964487968
 31
0.0
  0
LINE
  5
55F
330
1F
100
AcDbEntity
  8
受信機_上カバー
370
    18
100
AcDbLine
 10
702.2374999999985
 20
550.9929644879683
 30
0.0
 11
702.2374999999985
 21
533.982964487968
 31
0.0
  0
LINE
  5
560
330
1F
100
AcDbEntity
  8
アクリル板
100
AcDbLine
 10
609.0499999999994
 20
509.9309644879675
 30
0.0
 11
591.0499999999994
 21
509.9309644879675
 31
0.0
  0
LINE
  5
561
330
1F
100
AcDbEntity
  8
アクリル板
100
AcDbLine
 10
674.5499999999994
 20
491.930964487968
 30
0.0
 11
654.5499999999994
 21
491.930964487968
 31
0.0
  0
LINE
  5
562
330
1F
100
AcDbEntity
  8
アクリル板
100
AcDbLine
 10
674.5499999999994
 20
508.9309644879675
 30
0.0
 11
673.5499999999994
 21
509.9309644879675
 31
0.0
  0
LINE
  5
563
330
1F
100
AcDbEntity
  8
アクリル板
100
AcDbLine
 10
729.0499999999994
 20
367.4309644879675
 30
0.0
 11
729.0499999999994
 21
394.4309644879675
 31
0.0
  0
LINE
  5
564
330
1F
100
AcDbEntity
  8
アクリル板
100
AcDbLine
 10
407.5499999999994
 20
471.930964487968
 30
0.0
 11
728.0499999999994
 21
471.930964487968
 31
0.0
  0
LINE
  5
565
330
1F
100
AcDbEntity
  8
アクリル板
100
AcDbLine
 10
406.5499999999994
 20
508.9309644879675
 30
0.0
 11
407.5499999999994
 21
509.9309644879675
 31
0.0
  0
LINE
  5
566
330
1F
100
AcDbEntity
  8
アクリル板
100
AcDbLine
 10
416.5499999999994
 20
491.930964487968
 30
0.0
 11
406.5499999999994
 21
491.930964487968
 31
0.0
  0
LINE
  5
567
330
1F
100
AcDbEntity
  8
アクリル板
100
AcDbLine
 10
728.0499999999994
 20
509.9309644879675
 30
0.0
 11
720.0499999999994
 21
509.9309644879675
 31
0.0
  0
LINE
  5
568
330
1F
100
AcDbEntity
  8
アクリル板
100
AcDbLine
 10
729.0499999999994
 20
481.9309644879675
 30
0.0
 11
729.0499999999994
 21
508.9309644879675
 31
0.0
  0
LINE
  5
569
330
1F
100
AcDbEntity
  8
アクリル板
100
AcDbLine
 10
406.5499999999994
 20
508.9309644879675
 30
0.0
 11
406.5499999999994
 21
481.9309644879675
 31
0.0
  0
LINE
  5
56A
330
1F
100
AcDbEntity
  8
アクリル板
100
AcDbLine
 10
544.5499999999994
 20
395.4309644879675
 30
0.0
 11
526.5499999999994
 21
395.4309644879675
 31
0.0
  0
LINE
  5
56B
330
1F
100
AcDbEntity
  8
アクリル板
100
AcDbLine
 10
655.5499999999994
 20
509.9309644879675
 30
0.0
 11
654.5499999999994
 21
508.9309644879675
 31
0.0
  0
LINE
  5
56C
330
1F
100
AcDbEntity
  8
アクリル板
100
AcDbLine
 10
729.0499999999994
 20
377.4309644879675
 30
0.0
 11
719.0499999999994
 21
377.4309644879675
 31
0.0
  0
LINE
  5
56D
330
1F
100
AcDbEntity
  8
アクリル板
100
AcDbLine
 10
481.0499999999994
 20
491.930964487968
 30
0.0
 11
461.0499999999994
 21
491.930964487968
 31
0.0
  0
LINE
  5
56E
330
1F
100
AcDbEntity
  8
アクリル板
100
AcDbLine
 10
481.0499999999994
 20
508.9309644879675
 30
0.0
 11
480.0499999999994
 21
509.9309644879675
 31
0.0
  0
LINE
  5
56F
330
1F
100
AcDbEntity
  8
アクリル板
100
AcDbLine
 10
729.0499999999994
 20
491.930964487968
 30
0.0
 11
719.0499999999994
 21
491.930964487968
 31
0.0
  0
LINE
  5
570
330
1F
100
AcDbEntity
  8
アクリル板
100
AcDbLine
 10
719.0499999999994
 20
508.9309644879675
 30
0.0
 11
720.0499999999994
 21
509.9309644879675
 31
0.0
  0
LINE
  5
571
330
1F
100
AcDbEntity
  8
アクリル板
100
AcDbLine
 10
728.0499999999994
 20
509.9309644879675
 30
0.0
 11
729.0499999999994
 21
508.9309644879675
 31
0.0
  0
LINE
  5
572
330
1F
100
AcDbEntity
  8
アクリル板
100
AcDbLine
 10
462.0499999999994
 20
509.9309644879675
 30
0.0
 11
461.0499999999994
 21
508.9309644879675
 31
0.0
  0
LINE
  5
573
330
1F
100
AcDbEntity
  8
アクリル板
100
AcDbLine
 10
673.5499999999994
 20
395.4309644879675
 30
0.0
 11
655.5499999999994
 21
395.4309644879675
 31
0.0
  0
LINE
  5
574
330
1F
100
AcDbEntity
  8
アクリル板
100
AcDbLine
 10
480.0499999999994
 20
395.4309644879675
 30
0.0
 11
462.0499999999994
 21
395.4309644879675
 31
0.0
  0
LINE
  5
575
330
1F
100
AcDbEntity
  8
アクリル板
100
AcDbLine
 10
591.0499999999994
 20
509.9309644879675
 30
0.0
 11
590.0499999999994
 21
508.9309644879675
 31
0.0
  0
LINE
  5
576
330
1F
100
AcDbEntity
  8
アクリル板
100
AcDbLine
 10
610.0499999999994
 20
377.4309644879675
 30
0.0
 11
590.0499999999994
 21
377.4309644879675
 31
0.0
  0
LINE
  5
577
330
1F
100
AcDbEntity
  8
アクリル板
100
AcDbLine
 10
610.0499999999994
 20
394.4309644879675
 30
0.0
 11
609.0499999999994
 21
395.4309644879675
 31
0.0
  0
LINE
  5
578
330
1F
100
AcDbEntity
  8
アクリル板
100
AcDbLine
 10
481.0499999999994
 20
394.4309644879675
 30
0.0
 11
480.0499999999994
 21
395.4309644879675
 31
0.0
  0
LINE
  5
579
330
1F
100
AcDbEntity
  8
アクリル板
100
AcDbLine
 10
545.5499999999994
 20
508.9309644879675
 30
0.0
 11
544.5499999999994
 21
509.9309644879675
 31
0.0
  0
LINE
  5
57A
330
1F
100
AcDbEntity
  8
アクリル板
100
AcDbLine
 10
545.5499999999994
 20
491.930964487968
 30
0.0
 11
525.5499999999994
 21
491.930964487968
 31
0.0
  0
LINE
  5
57B
330
1F
100
AcDbEntity
  8
アクリル板
100
AcDbLine
 10
655.5499999999994
 20
395.4309644879675
 30
0.0
 11
654.5499999999994
 21
394.4309644879675
 31
0.0
  0
LINE
  5
57C
330
1F
100
AcDbEntity
  8
アクリル板
100
AcDbLine
 10
462.0499999999994
 20
395.4309644879675
 30
0.0
 11
461.0499999999994
 21
394.4309644879675
 31
0.0
  0
LINE
  5
57D
330
1F
100
AcDbEntity
  8
アクリル板
100
AcDbLine
 10
545.5499999999994
 20
377.4309644879675
 30
0.0
 11
525.5499999999994
 21
377.4309644879675
 31
0.0
  0
LINE
  5
57E
330
1F
100
AcDbEntity
  8
アクリル板
100
AcDbLine
 10
545.5499999999994
 20
394.4309644879675
 30
0.0
 11
544.5499999999994
 21
395.4309644879675
 31
0.0
  0
LINE
  5
57F
330
1F
100
AcDbEntity
  8
アクリル板
100
AcDbLine
 10
526.5499999999994
 20
395.4309644879675
 30
0.0
 11
525.5499999999994
 21
394.4309644879675
 31
0.0
  0
LINE
  5
580
330
1F
100
AcDbEntity
  8
アクリル板
100
AcDbLine
 10
729.0499999999994
 20
358.4309644879675
 30
0.0
 11
728.0499999999994
 21
357.4309644879675
 31
0.0
  0
LINE
  5
581
330
1F
100
AcDbEntity
  8
アクリル板
100
AcDbLine
 10
415.5499999999994
 20
509.9309644879675
 30
0.0
 11
407.5499999999994
 21
509.9309644879675
 31
0.0
  0
LINE
  5
582
330
1F
100
AcDbEntity
  8
アクリル板
100
AcDbLine
 10
591.0499999999994
 20
395.4309644879675
 30
0.0
 11
590.0499999999994
 21
394.4309644879675
 31
0.0
  0
LINE
  5
583
330
1F
100
AcDbEntity
  8
アクリル板
100
AcDbLine
 10
728.0499999999994
 20
395.4309644879675
 30
0.0
 11
729.0499999999994
 21
394.4309644879675
 31
0.0
  0
LINE
  5
584
330
1F
100
AcDbEntity
  8
アクリル板
100
AcDbLine
 10
719.0499999999994
 20
394.4309644879675
 30
0.0
 11
720.0499999999994
 21
395.4309644879675
 31
0.0
  0
LINE
  5
585
330
1F
100
AcDbEntity
  8
アクリル板
100
AcDbLine
 10
729.0499999999994
 20
372.4309644879675
 30
0.0
 11
406.5499999999994
 21
372.4309644879675
 31
0.0
  0
LINE
  5
586
330
1F
100
AcDbEntity
  8
アクリル板
370
    13
100
AcDbLine
 10
407.5499999999994
 20
509.9309644879675
 30
0.0
 11
407.5499999999994
 21
486.6309644879678
 31
0.0
  0
LINE
  5
587
330
1F
100
AcDbEntity
  8
アクリル板
370
    13
100
AcDbLine
 10
415.5499999999994
 20
509.9309644879675
 30
0.0
 11
415.5499999999994
 21
486.6309644879678
 31
0.0
  0
LINE
  5
588
330
1F
100
AcDbEntity
  8
アクリル板
100
AcDbLine
 10
416.5499999999994
 20
486.6309644879678
 30
0.0
 11
416.5499999999994
 21
508.9309644879675
 31
0.0
  0
LINE
  5
589
330
1F
100
AcDbEntity
  8
アクリル板
100
AcDbLine
 10
461.0499999999994
 20
508.9309644879675
 30
0.0
 11
461.0499999999994
 21
486.6309644879678
 31
0.0
  0
LINE
  5
58A
330
1F
100
AcDbEntity
  8
アクリル板
370
    13
100
AcDbLine
 10
462.0499999999994
 20
509.9309644879675
 30
0.0
 11
462.0499999999994
 21
486.6309644879678
 31
0.0
  0
LINE
  5
58B
330
1F
100
AcDbEntity
  8
アクリル板
100
AcDbLine
 10
481.0499999999994
 20
486.6309644879678
 30
0.0
 11
481.0499999999994
 21
508.9309644879675
 31
0.0
  0
LINE
  5
58C
330
1F
100
AcDbEntity
  8
アクリル板
370
    13
100
AcDbLine
 10
480.0499999999994
 20
509.9309644879675
 30
0.0
 11
480.0499999999994
 21
486.6309644879678
 31
0.0
  0
LINE
  5
58D
330
1F
100
AcDbEntity
  8
アクリル板
100
AcDbLine
 10
525.5499999999994
 20
508.9309644879675
 30
0.0
 11
525.5499999999994
 21
486.6309644879678
 31
0.0
  0
LINE
  5
58E
330
1F
100
AcDbEntity
  8
アクリル板
370
    13
100
AcDbLine
 10
526.5499999999994
 20
509.9309644879675
 30
0.0
 11
526.5499999999994
 21
486.6309644879678
 31
0.0
  0
LINE
  5
58F
330
1F
100
AcDbEntity
  8
アクリル板
100
AcDbLine
 10
545.5499999999994
 20
486.6309644879678
 30
0.0
 11
545.5499999999994
 21
508.9309644879675
 31
0.0
  0
LINE
  5
590
330
1F
100
AcDbEntity
  8
アクリル板
370
    13
100
AcDbLine
 10
544.5499999999994
 20
509.9309644879675
 30
0.0
 11
544.5499999999994
 21
486.6309644879678
 31
0.0
  0
LINE
  5
591
330
1F
100
AcDbEntity
  8
アクリル板
100
AcDbLine
 10
590.0499999999994
 20
508.9309644879675
 30
0.0
 11
590.0499999999994
 21
486.6309644879678
 31
0.0
  0
LINE
  5
592
330
1F
100
AcDbEntity
  8
アクリル板
100
AcDbLine
 10
526.5499999999994
 20
509.9309644879675
 30
0.0
 11
525.5499999999994
 21
508.9309644879675
 31
0.0
  0
LINE
  5
593
330
1F
100
AcDbEntity
  8
アクリル板
100
AcDbLine
 10
480.0499999999994
 20
509.9309644879675
 30
0.0
 11
462.0499999999994
 21
509.9309644879675
 31
0.0
  0
LINE
  5
594
330
1F
100
AcDbEntity
  8
アクリル板
100
AcDbLine
 10
407.5499999999994
 20
357.4309644879675
 30
0.0
 11
728.0499999999994
 21
357.4309644879675
 31
0.0
  0
LINE
  5
595
330
1F
100
AcDbEntity
  8
アクリル板
100
AcDbLine
 10
673.5499999999994
 20
509.9309644879675
 30
0.0
 11
655.5499999999994
 21
509.9309644879675
 31
0.0
  0
LINE
  5
596
330
1F
100
AcDbEntity
  8
アクリル板
370
    13
100
AcDbLine
 10
591.0499999999994
 20
509.9309644879675
 30
0.0
 11
591.0499999999994
 21
486.6309644879678
 31
0.0
  0
LINE
  5
597
330
1F
100
AcDbEntity
  8
アクリル板
100
AcDbLine
 10
610.0499999999994
 20
486.6309644879678
 30
0.0
 11
610.0499999999994
 21
508.9309644879675
 31
0.0
  0
LINE
  5
598
330
1F
100
AcDbEntity
  8
アクリル板
370
    13
100
AcDbLine
 10
609.0499999999994
 20
509.9309644879675
 30
0.0
 11
609.0499999999994
 21
486.6309644879678
 31
0.0
  0
LINE
  5
599
330
1F
100
AcDbEntity
  8
アクリル板
100
AcDbLine
 10
654.5499999999994
 20
508.9309644879675
 30
0.0
 11
654.5499999999994
 21
486.6309644879678
 31
0.0
  0
LINE
  5
59A
330
1F
100
AcDbEntity
  8
アクリル板
370
    13
100
AcDbLine
 10
655.5499999999994
 20
509.9309644879675
 30
0.0
 11
655.5499999999994
 21
486.6309644879678
 31
0.0
  0
LINE
  5
59B
330
1F
100
AcDbEntity
  8
アクリル板
100
AcDbLine
 10
674.5499999999994
 20
486.6309644879678
 30
0.0
 11
674.5499999999994
 21
508.9309644879675
 31
0.0
  0
LINE
  5
59C
330
1F
100
AcDbEntity
  8
アクリル板
370
    13
100
AcDbLine
 10
673.5499999999994
 20
509.9309644879675
 30
0.0
 11
673.5499999999994
 21
486.6309644879678
 31
0.0
  0
LINE
  5
59D
330
1F
100
AcDbEntity
  8
アクリル板
100
AcDbLine
 10
719.0499999999994
 20
508.9309644879675
 30
0.0
 11
719.0499999999994
 21
486.6309644879678
 31
0.0
  0
LINE
  5
59E
330
1F
100
AcDbEntity
  8
アクリル板
370
    13
100
AcDbLine
 10
720.0499999999994
 20
509.9309644879675
 30
0.0
 11
720.0499999999994
 21
486.6309644879678
 31
0.0
  0
LINE
  5
59F
330
1F
100
AcDbEntity
  8
アクリル板
370
    13
100
AcDbLine
 10
728.0499999999994
 20
509.9309644879675
 30
0.0
 11
728.0499999999994
 21
486.6309644879678
 31
0.0
  0
LINE
  5
5A0
330
1F
100
AcDbEntity
  8
アクリル板
100
AcDbLine
 10
481.0499999999994
 20
377.4309644879675
 30
0.0
 11
461.0499999999994
 21
377.4309644879675
 31
0.0
  0
LINE
  5
5A1
330
1F
100
AcDbEntity
  8
アクリル板
100
AcDbLine
 10
544.5499999999994
 20
509.9309644879675
 30
0.0
 11
526.5499999999994
 21
509.9309644879675
 31
0.0
  0
LINE
  5
5A2
330
1F
100
AcDbEntity
  8
アクリル板
370
    13
100
AcDbLine
 10
407.5499999999994
 20
395.4309644879675
 30
0.0
 11
407.5499999999994
 21
371.9309644879675
 31
0.0
  0
LINE
  5
5A3
330
1F
100
AcDbEntity
  8
アクリル板
370
    13
100
AcDbLine
 10
415.5499999999994
 20
395.4309644879675
 30
0.0
 11
415.5499999999994
 21
371.9309644879675
 31
0.0
  0
LINE
  5
5A4
330
1F
100
AcDbEntity
  8
アクリル板
100
AcDbLine
 10
416.5499999999994
 20
371.9309644879675
 30
0.0
 11
416.5499999999994
 21
394.4309644879675
 31
0.0
  0
LINE
  5
5A5
330
1F
100
AcDbEntity
  8
アクリル板
370
    13
100
AcDbLine
 10
462.0499999999994
 20
395.4309644879675
 30
0.0
 11
462.0499999999994
 21
371.9309644879675
 31
0.0
  0
LINE
  5
5A6
330
1F
100
AcDbEntity
  8
アクリル板
100
AcDbLine
 10
461.0499999999994
 20
394.4309644879675
 30
0.0
 11
461.0499999999994
 21
371.9309644879675
 31
0.0
  0
LINE
  5
5A7
330
1F
100
AcDbEntity
  8
アクリル板
370
    13
100
AcDbLine
 10
480.0499999999994
 20
395.4309644879675
 30
0.0
 11
480.0499999999994
 21
371.9309644879675
 31
0.0
  0
LINE
  5
5A8
330
1F
100
AcDbEntity
  8
アクリル板
100
AcDbLine
 10
481.0499999999994
 20
371.9309644879675
 30
0.0
 11
481.0499999999994
 21
394.4309644879675
 31
0.0
  0
LINE
  5
5A9
330
1F
100
AcDbEntity
  8
アクリル板
370
    13
100
AcDbLine
 10
526.5499999999994
 20
395.4309644879675
 30
0.0
 11
526.5499999999994
 21
371.9309644879675
 31
0.0
  0
LINE
  5
5AA
330
1F
100
AcDbEntity
  8
アクリル板
100
AcDbLine
 10
525.5499999999994
 20
394.4309644879675
 30
0.0
 11
525.5499999999994
 21
371.9309644879675
 31
0.0
  0
LINE
  5
5AB
330
1F
100
AcDbEntity
  8
アクリル板
370
    13
100
AcDbLine
 10
544.5499999999994
 20
395.4309644879675
 30
0.0
 11
544.5499999999994
 21
371.9309644879675
 31
0.0
  0
LINE
  5
5AC
330
1F
100
AcDbEntity
  8
アクリル板
100
AcDbLine
 10
610.0499999999994
 20
491.930964487968
 30
0.0
 11
590.0499999999994
 21
491.930964487968
 31
0.0
  0
LINE
  5
5AD
330
1F
100
AcDbEntity
  8
アクリル板
100
AcDbLine
 10
415.5499999999994
 20
395.4309644879675
 30
0.0
 11
407.5499999999994
 21
395.4309644879675
 31
0.0
  0
LINE
  5
5AE
330
1F
100
AcDbEntity
  8
アクリル板
100
AcDbLine
 10
406.5499999999994
 20
394.4309644879675
 30
0.0
 11
407.5499999999994
 21
395.4309644879675
 31
0.0
  0
LINE
  5
5AF
330
1F
100
AcDbEntity
  8
アクリル板
100
AcDbLine
 10
545.5499999999994
 20
371.9309644879675
 30
0.0
 11
545.5499999999994
 21
394.4309644879675
 31
0.0
  0
LINE
  5
5B0
330
1F
100
AcDbEntity
  8
アクリル板
100
AcDbLine
 10
590.0499999999994
 20
394.4309644879675
 30
0.0
 11
590.0499999999994
 21
371.9309644879675
 31
0.0
  0
LINE
  5
5B1
330
1F
100
AcDbEntity
  8
アクリル板
370
    13
100
AcDbLine
 10
591.0499999999994
 20
395.4309644879675
 30
0.0
 11
591.0499999999994
 21
371.9309644879675
 31
0.0
  0
LINE
  5
5B2
330
1F
100
AcDbEntity
  8
アクリル板
100
AcDbLine
 10
610.0499999999994
 20
371.9309644879675
 30
0.0
 11
610.0499999999994
 21
394.4309644879675
 31
0.0
  0
LINE
  5
5B3
330
1F
100
AcDbEntity
  8
アクリル板
370
    13
100
AcDbLine
 10
609.0499999999994
 20
395.4309644879675
 30
0.0
 11
609.0499999999994
 21
371.9309644879675
 31
0.0
  0
LINE
  5
5B4
330
1F
100
AcDbEntity
  8
アクリル板
370
    13
100
AcDbLine
 10
655.5499999999994
 20
395.4309644879675
 30
0.0
 11
655.5499999999994
 21
371.9309644879675
 31
0.0
  0
LINE
  5
5B5
330
1F
100
AcDbEntity
  8
アクリル板
100
AcDbLine
 10
654.5499999999994
 20
394.4309644879675
 30
0.0
 11
654.5499999999994
 21
371.9309644879675
 31
0.0
  0
LINE
  5
5B6
330
1F
100
AcDbEntity
  8
アクリル板
100
AcDbLine
 10
674.5499999999994
 20
371.9309644879675
 30
0.0
 11
674.5499999999994
 21
394.4309644879675
 31
0.0
  0
LINE
  5
5B7
330
1F
100
AcDbEntity
  8
アクリル板
370
    13
100
AcDbLine
 10
673.5499999999994
 20
395.4309644879675
 30
0.0
 11
673.5499999999994
 21
371.9309644879675
 31
0.0
  0
LINE
  5
5B8
330
1F
100
AcDbEntity
  8
アクリル板
100
AcDbLine
 10
719.0499999999994
 20
394.4309644879675
 30
0.0
 11
719.0499999999994
 21
371.9309644879675
 31
0.0
  0
LINE
  5
5B9
330
1F
100
AcDbEntity
  8
アクリル板
100
AcDbLine
 10
416.5499999999994
 20
377.4309644879675
 30
0.0
 11
406.5499999999994
 21
377.4309644879675
 31
0.0
  0
LINE
  5
5BA
330
1F
100
AcDbEntity
  8
アクリル板
100
AcDbLine
 10
406.5499999999994
 20
394.4309644879675
 30
0.0
 11
406.5499999999994
 21
367.4309644879675
 31
0.0
  0
LINE
  5
5BB
330
1F
100
AcDbEntity
  8
アクリル板
100
AcDbLine
 10
415.5499999999994
 20
395.4309644879675
 30
0.0
 11
416.5499999999994
 21
394.4309644879675
 31
0.0
  0
LINE
  5
5BC
330
1F
100
AcDbEntity
  8
アクリル板
100
AcDbLine
 10
609.0499999999994
 20
395.4309644879675
 30
0.0
 11
591.0499999999994
 21
395.4309644879675
 31
0.0
  0
LINE
  5
5BD
330
1F
100
AcDbEntity
  8
アクリル板
100
AcDbLine
 10
610.0499999999994
 20
508.9309644879675
 30
0.0
 11
609.0499999999994
 21
509.9309644879675
 31
0.0
  0
LINE
  5
5BE
330
1F
100
AcDbEntity
  8
アクリル板
100
AcDbLine
 10
406.5499999999994
 20
358.4309644879675
 30
0.0
 11
407.5499999999994
 21
357.4309644879675
 31
0.0
  0
LINE
  5
5BF
330
1F
100
AcDbEntity
  8
アクリル板
100
AcDbLine
 10
729.0499999999994
 20
472.930964487968
 30
0.0
 11
728.0499999999994
 21
471.930964487968
 31
0.0
  0
LINE
  5
5C0
330
1F
100
AcDbEntity
  8
アクリル板
370
    13
100
AcDbLine
 10
720.0499999999994
 20
395.4309644879675
 30
0.0
 11
720.0499999999994
 21
371.9309644879675
 31
0.0
  0
LINE
  5
5C1
330
1F
100
AcDbEntity
  8
アクリル板
370
    13
100
AcDbLine
 10
728.0499999999994
 20
395.4309644879675
 30
0.0
 11
728.0499999999994
 21
371.9309644879675
 31
0.0
  0
LINE
  5
5C2
330
1F
100
AcDbEntity
  8
アクリル板
100
AcDbLine
 10
407.5499999999994
 20
357.4309644879675
 30
0.0
 11
728.0499999999994
 21
357.4309644879675
 31
0.0
  0
LINE
  5
5C3
330
1F
100
AcDbEntity
  8
アクリル板
100
AcDbLine
 10
729.0499999999994
 20
358.4309644879675
 30
0.0
 11
728.0499999999994
 21
357.4309644879675
 31
0.0
  0
LINE
  5
5C4
330
1F
100
AcDbEntity
  8
アクリル板
100
AcDbLine
 10
407.5499999999994
 20
357.4309644879675
 30
0.0
 11
406.5499999999994
 21
358.4309644879675
 31
0.0
  0
LINE
  5
5C5
330
1F
100
AcDbEntity
  8
アクリル板
100
AcDbLine
 10
729.0499999999994
 20
358.4309644879675
 30
0.0
 11
729.0499999999994
 21
367.4309644879675
 31
0.0
  0
LINE
  5
5C6
330
1F
100
AcDbEntity
  8
アクリル板
100
AcDbLine
 10
407.5499999999994
 20
471.930964487968
 30
0.0
 11
728.0499999999994
 21
471.930964487968
 31
0.0
  0
LINE
  5
5C7
330
1F
100
AcDbEntity
  8
アクリル板
100
AcDbLine
 10
406.5499999999994
 20
367.4309644879675
 30
0.0
 11
406.5499999999994
 21
358.4309644879675
 31
0.0
  0
LINE
  5
5C8
330
1F
100
AcDbEntity
  8
アクリル板
100
AcDbLine
 10
407.5499999999994
 20
471.930964487968
 30
0.0
 11
406.5499999999994
 21
472.930964487968
 31
0.0
  0
LINE
  5
5C9
330
1F
100
AcDbEntity
  8
アクリル板
100
AcDbLine
 10
406.5499999999994
 20
472.930964487968
 30
0.0
 11
407.5499999999994
 21
471.930964487968
 31
0.0
  0
LINE
  5
5CA
330
1F
100
AcDbEntity
  8
アクリル板
100
AcDbLine
 10
674.5499999999994
 20
377.4309644879675
 30
0.0
 11
654.5499999999994
 21
377.4309644879675
 31
0.0
  0
LINE
  5
5CB
330
1F
100
AcDbEntity
  8
アクリル板
100
AcDbLine
 10
406.5499999999994
 20
486.930964487968
 30
0.0
 11
406.5499999999994
 21
472.930964487968
 31
0.0
  0
LINE
  5
5CC
330
1F
100
AcDbEntity
  8
アクリル板
100
AcDbLine
 10
674.5499999999994
 20
394.4309644879675
 30
0.0
 11
673.5499999999994
 21
395.4309644879675
 31
0.0
  0
LINE
  5
5CD
330
1F
100
AcDbEntity
  8
アクリル板
100
AcDbLine
 10
729.0499999999994
 20
472.930964487968
 30
0.0
 11
729.0499999999994
 21
486.930964487968
 31
0.0
  0
LINE
  5
5CE
330
1F
100
AcDbEntity
  8
アクリル板
100
AcDbLine
 10
729.0499999999994
 20
472.930964487968
 30
0.0
 11
728.0499999999994
 21
471.930964487968
 31
0.0
  0
LINE
  5
5CF
330
1F
100
AcDbEntity
  8
アクリル板
100
AcDbLine
 10
406.5499999999994
 20
481.930964487968
 30
0.0
 11
406.5499999999994
 21
472.930964487968
 31
0.0
  0
LINE
  5
5D0
330
1F
100
AcDbEntity
  8
アクリル板
100
AcDbLine
 10
729.0499999999994
 20
472.930964487968
 30
0.0
 11
729.0499999999994
 21
481.930964487968
 31
0.0
  0
LINE
  5
5D1
330
1F
100
AcDbEntity
  8
アクリル板
370
    13
100
AcDbLine
 10
729.0499999999994
 20
486.6309644879678
 30
0.0
 11
406.5499999999994
 21
486.6309644879678
 31
0.0
  0
LINE
  5
5D2
330
1F
100
AcDbEntity
  8
アクリル板
100
AcDbLine
 10
729.0499999999994
 20
358.4309644879675
 30
0.0
 11
729.0499999999994
 21
372.4309644879675
 31
0.0
  0
LINE
  5
5D3
330
1F
100
AcDbEntity
  8
アクリル板
100
AcDbLine
 10
415.5499999999994
 20
509.9309644879675
 30
0.0
 11
416.5499999999994
 21
508.9309644879675
 31
0.0
  0
LINE
  5
5D4
330
1F
100
AcDbEntity
  8
アクリル板
100
AcDbLine
 10
406.5499999999994
 20
372.4309644879675
 30
0.0
 11
406.5499999999994
 21
358.4309644879675
 31
0.0
  0
LINE
  5
5D5
330
1F
100
AcDbEntity
  8
アクリル板
100
AcDbLine
 10
729.0499999999994
 20
486.930964487968
 30
0.0
 11
406.5499999999994
 21
486.930964487968
 31
0.0
  0
LINE
  5
5D6
330
1F
100
AcDbEntity
  8
アクリル板
100
AcDbLine
 10
728.0499999999994
 20
395.4309644879675
 30
0.0
 11
720.0499999999994
 21
395.4309644879675
 31
0.0
  0
LINE
  5
5D7
330
1F
100
AcDbEntity
  8
アクリル板
370
    13
100
AcDbLine
 10
729.0499999999994
 20
371.9309644879675
 30
0.0
 11
406.5499999999994
 21
371.9309644879675
 31
0.0
  0
LINE
  5
5D8
330
1F
100
AcDbEntity
  8
アクリル板
370
    13
100
AcDbLine
 10
407.2499999999992
 20
472.2309644879682
 30
0.0
 11
728.3499999999996
 21
472.2309644879682
 31
0.0
  0
LINE
  5
5D9
330
1F
100
AcDbEntity
  8
アクリル板
370
    13
100
AcDbLine
 10
728.0499999999994
 20
571.4309644879679
 30
0.0
 11
728.0499999999994
 21
556.4309644879679
 31
0.0
  0
LINE
  5
5DA
330
1F
100
AcDbEntity
  8
アクリル板
100
AcDbLine
 10
729.0499999999994
 20
557.4309644879679
 30
0.0
 11
729.0499999999994
 21
570.4309644879679
 31
0.0
  0
LINE
  5
5DB
330
1F
100
AcDbEntity
  8
アクリル板
100
AcDbLine
 10
728.0499999999994
 20
571.4309644879679
 30
0.0
 11
729.0499999999994
 21
570.4309644879679
 31
0.0
  0
LINE
  5
5DC
330
1F
100
AcDbEntity
  8
アクリル板
100
AcDbLine
 10
728.0499999999994
 20
556.4309644879679
 30
0.0
 11
729.0499999999994
 21
557.4309644879679
 31
0.0
  0
LINE
  5
5DD
330
1F
100
AcDbEntity
  8
アクリル板
100
AcDbLine
 10
407.5499999999994
 20
571.4309644879679
 30
0.0
 11
406.5499999999994
 21
570.4309644879679
 31
0.0
  0
LINE
  5
5DE
330
1F
100
AcDbEntity
  8
アクリル板
100
AcDbLine
 10
406.5499999999994
 20
557.4309644879679
 30
0.0
 11
407.5499999999994
 21
556.4309644879679
 31
0.0
  0
LINE
  5
5DF
330
1F
100
AcDbEntity
  8
アクリル板
100
AcDbLine
 10
406.5499999999994
 20
561.4309644879679
 30
0.0
 11
729.0499999999994
 21
561.4309644879679
 31
0.0
  0
LINE
  5
5E0
330
1F
100
AcDbEntity
  8
アクリル板
370
    13
100
AcDbLine
 10
407.5499999999994
 20
571.4309644879679
 30
0.0
 11
407.5499999999994
 21
556.4309644879679
 31
0.0
  0
LINE
  5
5E1
330
1F
100
AcDbEntity
  8
アクリル板
370
    13
100
AcDbLine
 10
406.5499999999994
 20
570.4309644879679
 30
0.0
 11
729.0499999999994
 21
570.4309644879679
 31
0.0
  0
LINE
  5
5E2
330
1F
100
AcDbEntity
  8
アクリル板
100
AcDbLine
 10
406.5499999999994
 20
570.4309644879679
 30
0.0
 11
406.5499999999994
 21
557.4309644879679
 31
0.0
  0
LINE
  5
5E3
330
1F
100
AcDbEntity
  8
アクリル板
100
AcDbLine
 10
728.0499999999994
 20
571.4309644879679
 30
0.0
 11
407.5499999999994
 21
571.4309644879679
 31
0.0
  0
LINE
  5
5E4
330
1F
100
AcDbEntity
  8
アクリル板
100
AcDbLine
 10
407.5499999999994
 20
556.4309644879679
 30
0.0
 11
728.0499999999994
 21
556.4309644879679
 31
0.0
  0
LINE
  5
5E5
330
1F
100
AcDbEntity
  8
アクリル板
100
AcDbLine
 10
728.0499999999994
 20
456.9309644879675
 30
0.0
 11
407.5499999999994
 21
456.9309644879675
 31
0.0
  0
LINE
  5
5E6
330
1F
100
AcDbEntity
  8
アクリル板
100
AcDbLine
 10
407.5499999999994
 20
441.9309644879675
 30
0.0
 11
728.0499999999994
 21
441.9309644879675
 31
0.0
  0
LINE
  5
5E7
330
1F
100
AcDbEntity
  8
アクリル板
100
AcDbLine
 10
728.0499999999994
 20
456.9309644879675
 30
0.0
 11
729.0499999999994
 21
455.9309644879675
 31
0.0
  0
LINE
  5
5E8
330
1F
100
AcDbEntity
  8
アクリル板
100
AcDbLine
 10
728.0499999999994
 20
441.9309644879675
 30
0.0
 11
729.0499999999994
 21
442.9309644879675
 31
0.0
  0
LINE
  5
5E9
330
1F
100
AcDbEntity
  8
アクリル板
370
    13
100
AcDbLine
 10
406.5499999999994
 20
455.9309644879675
 30
0.0
 11
729.0499999999994
 21
455.9309644879675
 31
0.0
  0
LINE
  5
5EA
330
1F
100
AcDbEntity
  8
アクリル板
370
    13
100
AcDbLine
 10
407.5499999999994
 20
456.9309644879675
 30
0.0
 11
407.5499999999994
 21
441.9309644879675
 31
0.0
  0
LINE
  5
5EB
330
1F
100
AcDbEntity
  8
アクリル板
100
AcDbLine
 10
406.5499999999994
 20
455.9309644879675
 30
0.0
 11
406.5499999999994
 21
442.9309644879675
 31
0.0
  0
LINE
  5
5EC
330
1F
100
AcDbEntity
  8
アクリル板
370
    13
100
AcDbLine
 10
728.0499999999994
 20
456.9309644879675
 30
0.0
 11
728.0499999999994
 21
441.9309644879675
 31
0.0
  0
LINE
  5
5ED
330
1F
100
AcDbEntity
  8
アクリル板
100
AcDbLine
 10
729.0499999999994
 20
442.9309644879675
 30
0.0
 11
729.0499999999994
 21
455.9309644879675
 31
0.0
  0
LINE
  5
5EE
330
1F
100
AcDbEntity
  8
アクリル板
100
AcDbLine
 10
406.5499999999994
 20
442.9309644879675
 30
0.0
 11
407.5499999999994
 21
441.9309644879675
 31
0.0
  0
LINE
  5
5EF
330
1F
100
AcDbEntity
  8
アクリル板
100
AcDbLine
 10
407.5499999999994
 20
456.9309644879675
 30
0.0
 11
406.5499999999994
 21
455.9309644879675
 31
0.0
  0
LINE
  5
5F0
330
1F
100
AcDbEntity
  8
アクリル板
100
AcDbLine
 10
406.5499999999994
 20
446.9309644879675
 30
0.0
 11
729.0499999999994
 21
446.9309644879675
 31
0.0
  0
CIRCLE
  5
5F1
330
1F
100
AcDbEntity
  8
LED
100
AcDbCircle
 10
605.0499999999994
 20
550.5839644879691
 30
0.0
 40
4.0
  0
CIRCLE
  5
5F2
330
1F
100
AcDbEntity
  8
LED
100
AcDbCircle
 10
605.0499999999994
 20
550.5839644879691
 30
0.0
 40
2.5
  0
CIRCLE
  5
5F3
330
1F
100
AcDbEntity
  8
LED
100
AcDbCircle
 10
669.5499999999994
 20
550.5839644879691
 30
0.0
 40
2.5
  0
CIRCLE
  5
5F4
330
1F
100
AcDbEntity
  8
LED
100
AcDbCircle
 10
669.5499999999994
 20
550.5839644879691
 30
0.0
 40
4.0
  0
CIRCLE
  5
5F5
330
1F
100
AcDbEntity
  8
LED
100
AcDbCircle
 10
411.5499999999994
 20
550.4309644879679
 30
0.0
 40
2.5
  0
CIRCLE
  5
5F6
330
1F
100
AcDbEntity
  8
LED
100
AcDbCircle
 10
411.5499999999994
 20
550.4309644879679
 30
0.0
 40
4.0
  0
CIRCLE
  5
5F7
330
1F
100
AcDbEntity
  8
LED
100
AcDbCircle
 10
540.5499999999994
 20
550.5839644879691
 30
0.0
 40
4.0
  0
CIRCLE
  5
5F8
330
1F
100
AcDbEntity
  8
LED
100
AcDbCircle
 10
540.5499999999994
 20
550.5839644879691
 30
0.0
 40
2.5
  0
CIRCLE
  5
5F9
330
1F
100
AcDbEntity
  8
LED
100
AcDbCircle
 10
476.0499999999994
 20
550.4309644879679
 30
0.0
 40
2.5
  0
CIRCLE
  5
5FA
330
1F
100
AcDbEntity
  8
LED
100
AcDbCircle
 10
476.0499999999994
 20
550.4309644879679
 30
0.0
 40
4.0
  0
CIRCLE
  5
5FB
330
1F
100
AcDbEntity
  8
LED
100
AcDbCircle
 10
605.0499999999994
 20
436.0839644879687
 30
0.0
 40
4.0
  0
CIRCLE
  5
5FC
330
1F
100
AcDbEntity
  8
LED
100
AcDbCircle
 10
605.0499999999994
 20
436.0839644879687
 30
0.0
 40
2.5
  0
CIRCLE
  5
5FD
330
1F
100
AcDbEntity
  8
LED
100
AcDbCircle
 10
669.5499999999994
 20
436.0839644879687
 30
0.0
 40
2.5
  0
CIRCLE
  5
5FE
330
1F
100
AcDbEntity
  8
LED
100
AcDbCircle
 10
669.5499999999994
 20
436.0839644879687
 30
0.0
 40
4.0
  0
CIRCLE
  5
5FF
330
1F
100
AcDbEntity
  8
LED
100
AcDbCircle
 10
411.5499999999994
 20
435.9309644879675
 30
0.0
 40
2.5
  0
CIRCLE
  5
600
330
1F
100
AcDbEntity
  8
LED
100
AcDbCircle
 10
411.5499999999994
 20
435.9309644879675
 30
0.0
 40
4.0
  0
CIRCLE
  5
601
330
1F
100
AcDbEntity
  8
LED
100
AcDbCircle
 10
540.5499999999994
 20
436.0839644879687
 30
0.0
 40
4.0
  0
CIRCLE
  5
602
330
1F
100
AcDbEntity
  8
LED
100
AcDbCircle
 10
540.5499999999994
 20
436.0839644879687
 30
0.0
 40
2.5
  0
CIRCLE
  5
603
330
1F
100
AcDbEntity
  8
LED
100
AcDbCircle
 10
476.0499999999994
 20
435.9309644879675
 30
0.0
 40
2.5
  0
CIRCLE
  5
604
330
1F
100
AcDbEntity
  8
LED
100
AcDbCircle
 10
476.0499999999994
 20
435.9309644879675
 30
0.0
 40
4.0
  0
LWPOLYLINE
  5
605
330
1F
100
AcDbEntity
  8
電源SW
100
AcDbPolyline
 90
        5
 70
     0
 43
0.0
 10
375.4999999999999
 20
525.2
 10
375.4999999999999
 20
546.2
 10
390.4999999999999
 20
546.2
 10
390.4999999999999
 20
525.2
 10
375.4999999999999
 20
525.2
  0
LWPOLYLINE
  5
606
330
1F
100
AcDbEntity
  8
電源SW
100
AcDbPolyline
 90
        5
 70
     0
 43
0.0
 10
377.8999999999995
 20
528.2
 10
377.8999999999995
 20
543.2
 10
388.0999999999993
 20
543.2
 10
388.0999999999993
 20
528.2
 10
377.8999999999995
 20
528.2
  0
LWPOLYLINE
  5
607
330
1F
100
AcDbEntity
  8
電源SW
100
AcDbPolyline
 90
        5
 70
     0
 43
0.0
 10
380.5246502847511
 20
540.1509644879682
 10
380.5246502847511
 20
542.0209644879681
 10
385.3446502847509
 20
542.0209644879681
 10
385.3446502847509
 20
540.1509644879682
 10
380.5246502847511
 20
540.1509644879682
  0
ARC
  5
608
330
1F
100
AcDbEntity
  8
樹脂
370
    13
100
AcDbCircle
 10
438.7800000000001
 20
558.7
 30
0.0
 40
3.0
100
AcDbArc
 50
229.1430470289425
 51
310.8569529710575
  0
ARC
  5
609
330
1F
100
AcDbEntity
  8
樹脂
370
    13
100
AcDbCircle
 10
438.8000000000001
 20
443.7699999999998
 30
0.0
 40
3.0
100
AcDbArc
 50
217.8075984737163
 51
322.1924015262837
  0
ARC
  5
60A
330
1F
100
AcDbEntity
  8
樹脂
370
    13
100
AcDbCircle
 10
503.2999999999994
 20
443.6469644879674
 30
0.0
 40
3.0
100
AcDbArc
 50
214.8898099186134
 51
325.1101900813866
  0
ARC
  5
60B
330
1F
100
AcDbEntity
  8
樹脂
370
    13
100
AcDbCircle
 10
567.7999999999994
 20
443.6469644879674
 30
0.0
 40
3.0
100
AcDbArc
 50
214.8898099186134
 51
325.1101900813866
  0
ARC
  5
60C
330
1F
100
AcDbEntity
  8
樹脂
370
    13
100
AcDbCircle
 10
632.2999999999994
 20
443.6469644879674
 30
0.0
 40
3.0
100
AcDbArc
 50
214.8898099186134
 51
325.1101900813866
  0
ARC
  5
60D
330
1F
100
AcDbEntity
  8
樹脂
370
    13
100
AcDbCircle
 10
696.7999999999994
 20
443.6469644879674
 30
0.0
 40
3.0
100
AcDbArc
 50
214.8898099186134
 51
325.1101900813866
  0
ARC
  5
60E
330
1F
100
AcDbEntity
  8
樹脂
370
    13
100
AcDbCircle
 10
503.2800000000001
 20
558.7
 30
0.0
 40
3.0
100
AcDbArc
 50
229.1430470289425
 51
310.8569529710575
  0
ARC
  5
60F
330
1F
100
AcDbEntity
  8
樹脂
370
    13
100
AcDbCircle
 10
567.7800000000001
 20
558.7
 30
0.0
 40
3.0
100
AcDbArc
 50
229.1430470289425
 51
310.8569529710575
  0
ARC
  5
610
330
1F
100
AcDbEntity
  8
樹脂
370
    13
100
AcDbCircle
 10
632.2800000000001
 20
558.7
 30
0.0
 40
3.0
100
AcDbArc
 50
229.1430470289425
 51
310.8569529710575
  0
ARC
  5
611
330
1F
100
AcDbEntity
  8
樹脂
370
    13
100
AcDbCircle
 10
696.7800000000001
 20
558.7
 30
0.0
 40
3.0
100
AcDbArc
 50
229.1430470289425
 51
310.8569529710575
  0
LINE
  5
612
330
1F
100
AcDbEntity
  8
ACアダプタ
100
AcDbLine
 10
483.6321311670054
 20
604.9499999999999
 30
0.0
 11
472.9621311670053
 21
605.9800000000001
 31
0.0
  0
LINE
  5
613
330
1F
100
AcDbEntity
  8
ACアダプタ
100
AcDbLine
 10
472.9621311670053
 20
605.9800000000001
 30
0.0
 11
472.9621311670053
 21
611.4200000000002
 31
0.0
  0
LINE
  5
614
330
1F
100
AcDbEntity
  8
ACアダプタ
100
AcDbLine
 10
483.6321311670054
 20
612.4499999999999
 30
0.0
 11
472.9621311670053
 21
611.4200000000002
 31
0.0
  0
LWPOLYLINE
  5
615
330
1F
100
AcDbEntity
  8
ACアダプタ
100
AcDbPolyline
 90
        5
 70
     0
 43
0.0
 10
484.822131167005
 20
603.6500000000002
 10
483.6321311670054
 20
603.6500000000002
 10
483.6321311670054
 20
613.83
 10
484.822131167005
 20
613.83
 10
484.822131167005
 20
603.6500000000002
  0
ARC
  5
616
330
1F
100
AcDbEntity
  8
ACアダプタ
100
AcDbCircle
 10
536.492131167005
 20
587.1999999999999
 30
0.0
 40
2.0
100
AcDbArc
 50
270.0
 51
0.0
  0
ARC
  5
617
330
1F
100
AcDbEntity
  8
ACアダプタ
100
AcDbCircle
 10
536.492131167005
 20
630.1999999999999
 30
0.0
 40
2.0
100
AcDbArc
 50
0.0
 51
90.0
  0
LINE
  5
618
330
1F
100
AcDbEntity
  8
ACアダプタ
100
AcDbLine
 10
490.492131167005
 20
585.1999999999999
 30
0.0
 11
536.492131167005
 21
585.1999999999999
 31
0.0
  0
ARC
  5
619
330
1F
100
AcDbEntity
  8
ACアダプタ
100
AcDbCircle
 10
490.492131167005
 20
627.1999999999999
 30
0.0
 40
5.0
100
AcDbArc
 50
90.0
 51
180.0
  0
ARC
  5
61A
330
1F
100
AcDbEntity
  8
ACアダプタ
100
AcDbCircle
 10
490.492131167005
 20
590.1999999999999
 30
0.0
 40
5.0
100
AcDbArc
 50
180.0
 51
270.0
  0
LINE
  5
61B
330
1F
100
AcDbEntity
  8
ACアダプタ
100
AcDbLine
 10
485.492131167005
 20
627.1999999999999
 30
0.0
 11
485.492131167005
 21
590.1999999999999
 31
0.0
  0
LINE
  5
61C
330
1F
100
AcDbEntity
  8
ACアダプタ
100
AcDbLine
 10
538.492131167005
 20
587.1999999999999
 30
0.0
 11
538.492131167005
 21
630.1999999999999
 31
0.0
  0
LWPOLYLINE
  5
61D
330
1F
100
AcDbEntity
  8
ACアダプタ
100
AcDbPolyline
 90
        5
 70
     0
 43
0.0
 10
555.0921311670054
 20
616.6
 10
538.492131167005
 20
616.6
 10
538.492131167005
 20
615.0000000000001
 10
555.0921311670054
 20
615.0000000000001
 10
555.0921311670054
 20
616.6
  0
LINE
  5
61E
330
1F
100
AcDbEntity
  8
ACアダプタ
100
AcDbLine
 10
536.492131167005
 20
632.1999999999999
 30
0.0
 11
490.492131167005
 21
632.1999999999999
 31
0.0
  0
LWPOLYLINE
  5
61F
330
1F
100
AcDbEntity
  8
ACアダプタ
100
AcDbPolyline
 90
        5
 70
     0
 43
0.0
 10
555.0921311670054
 20
600.7999999999998
 10
538.492131167005
 20
600.7999999999998
 10
538.492131167005
 20
602.4000000000002
 10
555.0921311670054
 20
602.4000000000002
 10
555.0921311670054
 20
600.7999999999998
  0
LWPOLYLINE
  5
620
330
1F
100
AcDbEntity
  8
ACアダプタ
100
AcDbPolyline
 90
        5
 70
     0
 43
0.0
 10
380.3306994304971
 20
585.8499999999999
 10
380.3306994304971
 20
600.3499999999999
 10
387.0053497152485
 20
600.3499999999999
 10
387.0053497152485
 20
585.8499999999999
 10
380.3306994304971
 20
585.8499999999999
  0
LINE
  5
621
330
1F
100
AcDbEntity
  8
ACアダプタ
370
    25
100
AcDbLine
 10
472.9621311670053
 20
608.7000000000002
 30
0.0
 11
471.5076748576244
 21
608.7000000000002
 31
0.0
  0
LINE
  5
622
330
1F
100
AcDbEntity
  8
ACアダプタ
370
   100
100
AcDbLine
 10
466.5076748576244
 20
603.7000000000002
 30
0.0
 11
466.5076748576244
 21
597.5
 31
0.0
  0
LINE
  5
623
330
1F
100
AcDbEntity
  8
ACアダプタ
370
   100
100
AcDbLine
 10
456.5076748576244
 20
587.5
 30
0.0
 11
429.0076748576296
 21
587.5
 31
0.0
  0
LINE
  5
624
330
1F
100
AcDbEntity
  8
ACアダプタ
370
   100
100
AcDbLine
 10
383.6680245728728
 20
600.3499999999999
 30
0.0
 11
383.6680245728728
 21
620.4990531567356
 31
0.0
  0
LINE
  5
625
330
1F
100
AcDbEntity
  8
ACアダプタ
370
   100
100
AcDbLine
 10
428.7223721018279
 20
630.4990531567356
 30
0.0
 11
393.6680245728728
 21
630.4990531567356
 31
0.0
  0
ARC
  5
626
330
1F
100
AcDbEntity
  8
ACアダプタ
370
   100
100
AcDbCircle
 10
456.5076748576244
 20
597.5
 30
0.0
 40
10.0
100
AcDbArc
 50
270.0
 51
0.0
  0
ELLIPSE
  5
627
330
1F
100
AcDbEntity
  8
ACアダプタ
370
   100
100
AcDbEllipse
 10
429.0076748576244
 20
609.0
 30
0.0
 11
30.40016447323939
 21
0.0
 31
0.0
210
0.0
220
0.0
230
1.0
 40
0.7072330157597009
 41
0.0
 42
6.283185307179586
  0
ARC
  5
628
330
1F
100
AcDbEntity
  8
ACアダプタ
370
   100
100
AcDbCircle
 10
471.5076748576244
 20
603.7000000000002
 30
0.0
 40
5.0
100
AcDbArc
 50
90.0
 51
180.0
  0
ARC
  5
629
330
1F
100
AcDbEntity
  8
ACアダプタ
370
   100
100
AcDbCircle
 10
393.6680245728728
 20
620.4990531567356
 30
0.0
 40
10.0
100
AcDbArc
 50
90.0
 51
180.0
  0
ELLIPSE
  5
62A
330
1F
100
AcDbEntity
  8
ACアダプタ
370
   100
100
AcDbEllipse
 10
429.0076748576244
 20
609.0
 30
0.0
 11
29.09751827037439
 21
0.0
 31
0.0
210
0.0
220
0.0
230
1.0
 40
0.644892733835646
 41
0.0
 42
6.283185307179586
  0
ELLIPSE
  5
62B
330
1F
100
AcDbEntity
  8
ACアダプタ
370
   100
100
AcDbEllipse
 10
429.0076748576244
 20
609.0
 30
0.0
 11
25.60000000000014
 21
0.0
 31
0.0
210
0.0
220
0.0
230
1.0
 40
0.5196633995463988
 41
0.0
 42
6.283185307179586
  0
ELLIPSE
  5
62C
330
1F
100
AcDbEntity
  8
ACアダプタ
370
   100
100
AcDbEllipse
 10
429.0076748576244
 20
609.0
 30
0.0
 11
27.56142231453225
 21
0.0
 31
0.0
210
0.0
220
0.0
230
1.0
 40
0.5771752705244693
 41
0.0
 42
6.283185307179586
  0
LWPOLYLINE
  5
62D
330
1F
100
AcDbEntity
  8
テプラ
370
    25
100
AcDbPolyline
 90
        5
 70
     0
 43
0.0
 10
396.7000854492187
 20
345.0999755859375
 10
396.7000854492187
 20
354.0999755859375
 10
461.7000854492187
 20
354.0999755859375
 10
461.7000854492187
 20
345.0999755859375
 10
396.7000854492187
 20
345.0999755859375
  0
TEXT
  5
62E
330
1F
100
AcDbEntity
  8
文字
100
AcDbText
 10
653.4191973274866
 20
805.9735494528794
 30
0.0
 40
2.692940156741115
  1
製 造
 41
0.8
  7
MS Gothic
 72
     1
 11
656.9200195312501
 21
807.32001953125
 31
0.0
100
AcDbText
 73
     2
  0
TEXT
  5
62F
330
1F
100
AcDbEntity
  8
文字
100
AcDbText
 10
670.3300537109376
 20
810.9719564741808
 30
0.0
 40
2.30802399456914
  1
株式会社 アシスト
 41
0.8
  7
MS Gothic
 11
670.3300537109376
 21
813.27998046875
 31
0.0
100
AcDbText
 73
     3
  0
TEXT
  5
630
330
1F
100
AcDbEntity
  8
文字
100
AcDbText
 10
653.4193587052715
 20
832.8036286111019
 30
0.0
 40
2.692816019983526
  1
名 称
 41
0.8
  7
MS Gothic
 72
     1
 11
656.9200195312501
 21
834.1500366210937
 31
0.0
100
AcDbText
 73
     2
  0
TEXT
  5
631
330
1F
100
AcDbEntity
  8
文字
100
AcDbText
 10
653.4692774454753
 20
828.2837468465169
 30
0.0
 40
2.692540486653646
  1
型 式
 41
0.8
  7
MS Gothic
 72
     1
 11
656.9695800781251
 21
829.6300170898437
 31
0.0
100
AcDbText
 73
     2
  0
TEXT
  5
632
330
1F
100
AcDbEntity
  8
文字
100
AcDbText
 10
651.3280820006305
 20
823.8035467220941
 30
0.0
 40
2.692979797999189
  1
使用電源
 41
0.8
  7
MS Gothic
 72
     1
 11
656.9294799804688
 21
825.1500366210937
 31
0.0
100
AcDbText
 73
     2
  0
TEXT
  5
633
330
1F
100
AcDbEntity
  8
文字
100
AcDbText
 10
651.4085425683344
 20
819.2336606750428
 30
0.0
 40
2.692737243664414
  1
消費電流
 41
0.8
  7
MS Gothic
 72
     1
 11
657.0094360351563
 21
820.580029296875
 31
0.0
100
AcDbText
 73
     2
  0
TEXT
  5
634
330
1F
100
AcDbEntity
  8
文字
100
AcDbText
 10
652.5980779369555
 20
814.8034349670229
 30
0.0
 40
2.69320330814152
  1
Ｓ／Ｎ
 41
0.8
  7
MS Gothic
 72
     1
 11
656.7994750976563
 21
816.1500366210937
 31
0.0
100
AcDbText
 73
     2
  0
TEXT
  5
635
330
1F
100
AcDbEntity
  8
文字
100
AcDbText
 10
652.7785091807779
 20
810.2535071430277
 30
0.0
 40
2.692961299882044
  1
販売元
 41
0.8
  7
MS Gothic
 72
     1
 11
656.9795288085938
 21
811.5999877929687
 31
0.0
100
AcDbText
 73
     2
  0
TEXT
  5
636
330
1F
100
AcDbEntity
  8
文字
100
AcDbText
 10
670.9300292968751
 20
833.532323060507
 30
0.0
 40
2.307654966836656
  1
充電／収納ＢＯＸ
 41
0.8
  7
MS Gothic
 11
670.9300292968751
 21
835.8399780273437
 31
0.0
100
AcDbText
 73
     3
  0
TEXT
  5
637
330
1F
100
AcDbEntity
  8
文字
100
AcDbText
 10
667.9300292968751
 20
824.3921900730282
 30
0.0
 40
2.307773305877948
  1
ＡＣ１００Ｖ  50/60Hz
 41
0.8
  7
MS Gothic
 11
667.9300292968751
 21
826.6999633789062
 31
0.0
100
AcDbText
 73
     3
  0
TEXT
  5
638
330
1F
100
AcDbEntity
  8
文字
100
AcDbText
 10
667.3300537109376
 20
828.9621851510057
 30
0.0
 40
2.307785552119332
  1
ＡＴＭ／Ｒｘ－ＣＢ１０
 41
0.8
  7
MS Gothic
 11
667.3300537109376
 21
831.269970703125
 31
0.0
100
AcDbText
 73
     3
  0
TEXT
  5
639
330
1F
100
AcDbEntity
  8
文字
100
AcDbText
 10
672.1299804687501
 20
815.5023957004717
 30
0.0
 40
2.307614065153248
  1
１１０７０－１
 41
0.8
  7
MS Gothic
 11
672.1299804687501
 21
817.810009765625
 31
0.0
100
AcDbText
 73
     3
  0
TEXT
  5
63A
330
1F
100
AcDbEntity
  8
文字
100
AcDbText
 10
675.7299560546876
 20
819.832053713842
 30
0.0
 40
2.307912106470416
  1
０．３Ａ
 41
0.8
  7
MS Gothic
 11
675.7299560546876
 21
822.1399658203125
 31
0.0
100
AcDbText
 73
     3
  0
TEXT
  5
63B
330
1F
100
AcDbEntity
  8
文字
100
AcDbText
 10
667.9300292968751
 20
806.622255978574
 30
0.0
 40
2.307748904238472
  1
東理システム 株式会社
 41
0.8
  7
MS Gothic
 11
667.9300292968751
 21
808.9300048828125
 31
0.0
100
AcDbText
 73
     3
  0
LINE
  5
63C
330
1F
100
AcDbEntity
  8
罫線
100
AcDbLine
 10
699.45
 20
823.0
 30
0.0
 11
649.45
 21
823.0
 31
0.0
  0
LINE
  5
63D
330
1F
100
AcDbEntity
  8
罫線
100
AcDbLine
 10
699.45
 20
818.5
 30
0.0
 11
649.45
 21
818.5
 31
0.0
  0
LINE
  5
63E
330
1F
100
AcDbEntity
  8
罫線
100
AcDbLine
 10
699.45
 20
814.0
 30
0.0
 11
649.45
 21
814.0
 31
0.0
  0
LINE
  5
63F
330
1F
100
AcDbEntity
  8
罫線
370
    70
100
AcDbLine
 10
699.45
 20
836.5
 30
0.0
 11
649.45
 21
836.5
 31
0.0
  0
LINE
  5
640
330
1F
100
AcDbEntity
  8
罫線
370
    70
100
AcDbLine
 10
649.45
 20
836.5
 30
0.0
 11
649.45
 21
805.0
 31
0.0
  0
LINE
  5
641
330
1F
100
AcDbEntity
  8
罫線
100
AcDbLine
 10
664.45
 20
836.5
 30
0.0
 11
664.45
 21
805.0
 31
0.0
  0
LINE
  5
642
330
1F
100
AcDbEntity
  8
罫線
370
    70
100
AcDbLine
 10
649.45
 20
805.0
 30
0.0
 11
699.45
 21
805.0
 31
0.0
  0
LINE
  5
643
330
1F
100
AcDbEntity
  8
罫線
370
    70
100
AcDbLine
 10
699.45
 20
805.0
 30
0.0
 11
699.45
 21
836.5
 31
0.0
  0
LINE
  5
644
330
1F
100
AcDbEntity
  8
罫線
100
AcDbLine
 10
699.45
 20
832.0
 30
0.0
 11
649.45
 21
832.0
 31
0.0
  0
LINE
  5
645
330
1F
100
AcDbEntity
  8
罫線
100
AcDbLine
 10
699.45
 20
827.5
 30
0.0
 11
649.45
 21
827.5
 31
0.0
  0
LINE
  5
646
330
1F
100
AcDbEntity
  8
罫線
100
AcDbLine
 10
699.45
 20
809.5
 30
0.0
 11
649.45
 21
809.5
 31
0.0
  0
VIEWPORT
  5
647
330
1B
100
AcDbEntity
 67
     1
  8
0
100
AcDbViewport
 10
0.0
 20
0.0
 30
0.0
 40
1141.686
 41
1614.6702
 68
     1
 69
     1
 12
552.0000000000001
 22
773.0000000000001
 13
0.0
 23
0.0
 14
0.5
 24
0.5
 15
0.5
 25
0.5
 16
0.0
 26
0.0
 36
1.0
 17
0.0
 27
0.0
 37
0.0
 42
50.0
 43
0.0
 44
0.0
 45
1614.6702
 50
0.0
 51
0.0
 72
   100
 90
   557152
  1

281
     0
 71
     1
 74
     0
110
0.0
120
0.0
130
0.0
111
1.0
121
0.0
131
0.0
112
0.0
122
1.0
132
0.0
 79
     0
146
0.0
  0
POLYLINE
  5
648
102
{ACAD_REACTORS
102
}
330
1B
100
AcDbEntity
 67
     1
  8
rcviewportframe
100
AcDb2dPolyline
 66
     1
 10
0.0
 20
0.0
 30
0.0
 70
     1
  0
VERTEX
  5
649
330
648
100
AcDbEntity
 67
     1
  8
rcviewportframe
100
AcDbVertex
100
AcDb2dVertex
 10
-7.649999999999977
 20
-18.505
 30
0.0
  0
VERTEX
  5
64A
330
648
100
AcDbEntity
 67
     1
  8
rcviewportframe
100
AcDbVertex
100
AcDb2dVertex
 10
1111.65
 20
-18.505
 30
0.0
  0
VERTEX
  5
64B
330
648
100
AcDbEntity
 67
     1
  8
rcviewportframe
100
AcDbVertex
100
AcDb2dVertex
 10
1111.65
 20
1564.505
 30
0.0
  0
VERTEX
  5
64C
330
648
100
AcDbEntity
 67
     1
  8
rcviewportframe
100
AcDbVertex
100
AcDb2dVertex
 10
-7.649999999999977
 20
1564.505
 30
0.0
  0
SEQEND
  5
64D
330
648
100
AcDbEntity
 67
     1
  8
rcviewportframe
  0
VIEWPORT
  5
64E
330
1B
100
AcDbEntity
 67
     1
  8
ACアダプタ
100
AcDbViewport
 10
552.0
 20
773.0
 30
0.0
 40
1119.3
 41
1583.01
 68
     2
 69
     2
 12
552.0
 22
773.0
 13
0.0
 23
0.0
 14
0.5
 24
0.5
 15
0.5
 25
0.5
 16
0.0
 26
0.0
 36
1.0
 17
0.0
 27
0.0
 37
0.0
 42
50.0
 43
0.0
 44
0.0
 45
1583.01
 50
0.0
 51
0.0
 72
   100
 90
   622688
340
648
  1

281
     0
 71
     1
 74
     0
110
0.0
120
0.0
130
0.0
111
1.0
121
0.0
131
0.0
112
0.0
122
1.0
132
0.0
 79
     0
146
0.0
  0
ENDSEC
  0
SECTION
  2
OBJECTS
  0
DICTIONARY
  5
C
330
0
100
AcDbDictionary
281
     1
  3
ACAD_GROUP
350
D
  3
ACAD_IMAGE_VARS
350
40
  3
ACAD_LAYOUT
350
1A
  3
ACAD_MATERIAL
350
3B
  3
ACAD_MLEADERSTYLE
350
651
  3
ACAD_MLINESTYLE
350
17
  3
ACAD_PLOTSETTINGS
350
19
  3
ACAD_PLOTSTYLENAME
350
E
  3
ACAD_SCALELIST
350
301
  3
ACAD_VISUALSTYLE
350
2A
  3
AcDbVariableDictionary
350
64F
  0
DICTIONARY
  5
D
102
{ACAD_REACTORS
330
C
102
}
330
C
100
AcDbDictionary
281
     1
  0
RASTERVARIABLES
  5
40
102
{ACAD_REACTORS
330
C
102
}
330
C
100
AcDbRasterVariables
 90
        0
 70
     0
 71
     1
 72
     0
  0
DICTIONARY
  5
1A
102
{ACAD_REACTORS
330
C
102
}
330
C
100
AcDbDictionary
281
     1
  3
Model
350
22
  3
レイアウト1
350
1E
  0
DICTIONARY
  5
3B
102
{ACAD_REACTORS
330
C
102
}
330
C
100
AcDbDictionary
281
     1
  3
ByBlock
350
3D
  3
ByLayer
350
3C
  3
Global
350
3E
  0
DICTIONARY
  5
651
102
{ACAD_REACTORS
330
C
102
}
330
C
100
AcDbDictionary
281
     1
  0
DICTIONARY
  5
17
102
{ACAD_REACTORS
330
C
102
}
330
C
100
AcDbDictionary
281
     1
  3
Standard
350
18
  0
DICTIONARY
  5
19
102
{ACAD_REACTORS
330
C
102
}
330
C
100
AcDbDictionary
281
     1
  0
ACDBDICTIONARYWDFLT
  5
E
102
{ACAD_REACTORS
330
C
102
}
330
C
100
AcDbDictionary
281
     1
  3
Normal
350
F
100
AcDbDictionaryWithDefault
340
F
  0
DICTIONARY
  5
301
102
{ACAD_REACTORS
330
C
102
}
330
C
100
AcDbDictionary
281
     1
  3
A0
350
302
  3
A1
350
303
  3
A2
350
304
  3
A3
350
305
  3
A4
350
306
  3
A5
350
307
  3
A6
350
308
  3
A7
350
309
  3
A8
350
30A
  3
A9
350
30B
  3
B0
350
30C
  3
B1
350
30D
  3
B2
350
30E
  3
B3
350
30F
  3
B4
350
310
  3
B5
350
311
  3
B6
350
312
  3
B7
350
313
  3
B8
350
314
  3
B9
350
315
  3
C0
350
316
  3
C1
350
317
  3
C2
350
318
  3
C3
350
319
  3
C4
350
31A
  3
C5
350
31B
  3
C6
350
31C
  3
C7
350
31D
  3
C8
350
31E
  3
C9
350
31F
  3
D0
350
320
  3
D1
350
321
  3
D2
350
322
  0
DICTIONARY
  5
2A
102
{ACAD_REACTORS
330
C
102
}
330
C
100
AcDbDictionary
281
     1
  3
2dWireframe
350
2F
  3
3D Hidden
350
31
  3
3dWireframe
350
30
  3
Basic
350
32
  3
Brighten
350
36
  3
ColorChange
350
3A
  3
Conceptual
350
34
  3
Dim
350
35
  3
Facepattern
350
39
  3
Flat
350
2B
  3
FlatWithEdges
350
2C
  3
Gouraud
350
2D
  3
GouraudWithEdges
350
2E
  3
Linepattern
350
38
  3
Realistic
350
33
  3
Thicken
350
37
  0
DICTIONARY
  5
64F
102
{ACAD_REACTORS
330
C
102
}
330
C
100
AcDbDictionary
281
     1
  3
CANNOSCALE
350
652
  3
DIMASSOC
350
653
  3
HIDETEXT
350
654
  0
LAYOUT
  5
22
102
{ACAD_REACTORS
330
1A
102
}
330
1A
100
AcDbPlotSettings
  1

  2
none_device
  4

  6

 40
0.0
 41
0.0
 42
0.0
 43
0.0
 44
0.0
 45
0.0
 46
0.0
 47
0.0
 48
0.0
 49
0.0
140
0.0
141
0.0
142
1.0
143
1.0
 70
  1712
 72
     0
 73
     0
 74
     0
  7

 75
     0
147
1.0
148
0.0
149
0.0
100
AcDbLayout
  1
Model
 70
     1
 71
     0
 10
7.5
 20
0.0
 11
1406.625
 21
1931.5
 12
0.0
 22
0.0
 32
0.0
 14
7.5
 24
0.0
 34
0.0
 15
1406.625
 25
1931.5
 35
0.0
146
0.0
 13
0.0
 23
0.0
 33
0.0
 16
1.0
 26
0.0
 36
0.0
 17
0.0
 27
1.0
 37
0.0
 76
     0
330
1F
331
29
  0
LAYOUT
  5
1E
102
{ACAD_REACTORS
330
1A
102
}
330
1A
100
AcDbPlotSettings
  1

  2
none_device
  4
ISO_A3_(420.00_x_297.00_MM)
  6

 40
7.5
 41
20.0
 42
7.5
 43
20.0
 44
420.0
 45
297.0
 46
-7.5
 47
-20.0
 48
0.0
 49
0.0
140
0.0
141
0.0
142
1.0
143
1.0
 70
   688
 72
     1
 73
     0
 74
     5
  7

 75
    16
147
1.0
148
0.0
149
0.0
100
AcDbLayout
  1
レイアウト1
 70
     1
 71
     1
 10
-7.5
 20
-20.0
 11
420.0
 21
297.0
 12
0.0
 22
0.0
 32
0.0
 14
-9.375
 24
-25.0
 34
0.0
 15
525.0
 25
371.25
 35
0.0
146
0.0
 13
0.0
 23
0.0
 33
0.0
 16
1.0
 26
0.0
 36
0.0
 17
0.0
 27
1.0
 37
0.0
 76
     0
330
1B
331
647
  0
MATERIAL
  5
3D
102
{ACAD_REACTORS
330
3B
102
}
102
{ACAD_XDICTIONARY
360
679
102
}
330
3B
100
AcDbMaterial
  1
ByBlock
  0
MATERIAL
  5
3C
102
{ACAD_REACTORS
330
3B
102
}
102
{ACAD_XDICTIONARY
360
677
102
}
330
3B
100
AcDbMaterial
  1
ByLayer
  0
MATERIAL
  5
3E
102
{ACAD_REACTORS
330
3B
102
}
102
{ACAD_XDICTIONARY
360
67B
102
}
330
3B
100
AcDbMaterial
  1
Global
  0
MLINESTYLE
  5
18
102
{ACAD_REACTORS
330
17
102
}
330
17
100
AcDbMlineStyle
  2
Standard
 70
     0
  3

 62
   256
 51
90.0
 52
90.0
 71
     2
 49
0.5
 62
   256
  6
BYLAYER
 49
-0.5
 62
   256
  6
BYLAYER
  0
ACDBPLACEHOLDER
  5
F
102
{ACAD_REACTORS
330
E
102
}
330
E
  0
SCALE
  5
302
102
{ACAD_REACTORS
330
301
102
}
330
301
100
AcDbScale
 70
     0
300
1:1
140
1.0
141
1.0
290
     1
  0
SCALE
  5
303
102
{ACAD_REACTORS
330
301
102
}
330
301
100
AcDbScale
 70
     0
300
1:2
140
1.0
141
2.0
290
     0
  0
SCALE
  5
304
102
{ACAD_REACTORS
330
301
102
}
330
301
100
AcDbScale
 70
     0
300
1:4
140
1.0
141
4.0
290
     0
  0
SCALE
  5
305
102
{ACAD_REACTORS
330
301
102
}
330
301
100
AcDbScale
 70
     0
300
1:5
140
1.0
141
5.0
290
     0
  0
SCALE
  5
306
102
{ACAD_REACTORS
330
301
102
}
330
301
100
AcDbScale
 70
     0
300
1:8
140
1.0
141
8.0
290
     0
  0
SCALE
  5
307
102
{ACAD_REACTORS
330
301
102
}
330
301
100
AcDbScale
 70
     0
300
1:10
140
1.0
141
10.0
290
     0
  0
SCALE
  5
308
102
{ACAD_REACTORS
330
301
102
}
330
301
100
AcDbScale
 70
     0
300
1:16
140
1.0
141
16.0
290
     0
  0
SCALE
  5
309
102
{ACAD_REACTORS
330
301
102
}
330
301
100
AcDbScale
 70
     0
300
1:20
140
1.0
141
20.0
290
     0
  0
SCALE
  5
30A
102
{ACAD_REACTORS
330
301
102
}
330
301
100
AcDbScale
 70
     0
300
1:30
140
1.0
141
30.0
290
     0
  0
SCALE
  5
30B
102
{ACAD_REACTORS
330
301
102
}
330
301
100
AcDbScale
 70
     0
300
1:40
140
1.0
141
40.0
290
     0
  0
SCALE
  5
30C
102
{ACAD_REACTORS
330
301
102
}
330
301
100
AcDbScale
 70
     0
300
1:50
140
1.0
141
50.0
290
     0
  0
SCALE
  5
30D
102
{ACAD_REACTORS
330
301
102
}
330
301
100
AcDbScale
 70
     0
300
1:100
140
1.0
141
100.0
290
     0
  0
SCALE
  5
30E
102
{ACAD_REACTORS
330
301
102
}
330
301
100
AcDbScale
 70
     0
300
2:1
140
2.0
141
1.0
290
     0
  0
SCALE
  5
30F
102
{ACAD_REACTORS
330
301
102
}
330
301
100
AcDbScale
 70
     0
300
4:1
140
4.0
141
1.0
290
     0
  0
SCALE
  5
310
102
{ACAD_REACTORS
330
301
102
}
330
301
100
AcDbScale
 70
     0
300
8:1
140
8.0
141
1.0
290
     0
  0
SCALE
  5
311
102
{ACAD_REACTORS
330
301
102
}
330
301
100
AcDbScale
 70
     0
300
10:1
140
10.0
141
1.0
290
     0
  0
SCALE
  5
312
102
{ACAD_REACTORS
330
301
102
}
330
301
100
AcDbScale
 70
     0
300
100:1
140
100.0
141
1.0
290
     0
  0
SCALE
  5
313
102
{ACAD_REACTORS
330
301
102
}
330
301
100
AcDbScale
 70
     0
300
1/128" = 1'-0"
140
0.0078125
141
12.0
290
     0
  0
SCALE
  5
314
102
{ACAD_REACTORS
330
301
102
}
330
301
100
AcDbScale
 70
     0
300
1/64" = 1'-0"
140
0.015625
141
12.0
290
     0
  0
SCALE
  5
315
102
{ACAD_REACTORS
330
301
102
}
330
301
100
AcDbScale
 70
     0
300
1/32" = 1'-0"
140
0.03125
141
12.0
290
     0
  0
SCALE
  5
316
102
{ACAD_REACTORS
330
301
102
}
330
301
100
AcDbScale
 70
     0
300
1/16" = 1'-0"
140
0.0625
141
12.0
290
     0
  0
SCALE
  5
317
102
{ACAD_REACTORS
330
301
102
}
330
301
100
AcDbScale
 70
     0
300
3/32" = 1'-0"
140
0.09375
141
12.0
290
     0
  0
SCALE
  5
318
102
{ACAD_REACTORS
330
301
102
}
330
301
100
AcDbScale
 70
     0
300
1/8" = 1'-0"
140
0.125
141
12.0
290
     0
  0
SCALE
  5
319
102
{ACAD_REACTORS
330
301
102
}
330
301
100
AcDbScale
 70
     0
300
3/16" = 1'-0"
140
0.1875
141
12.0
290
     0
  0
SCALE
  5
31A
102
{ACAD_REACTORS
330
301
102
}
330
301
100
AcDbScale
 70
     0
300
1/4" = 1'-0"
140
0.25
141
12.0
290
     0
  0
SCALE
  5
31B
102
{ACAD_REACTORS
330
301
102
}
330
301
100
AcDbScale
 70
     0
300
3/8" = 1'-0"
140
0.375
141
12.0
290
     0
  0
SCALE
  5
31C
102
{ACAD_REACTORS
330
301
102
}
330
301
100
AcDbScale
 70
     0
300
1/2" = 1'-0"
140
0.5
141
12.0
290
     0
  0
SCALE
  5
31D
102
{ACAD_REACTORS
330
301
102
}
330
301
100
AcDbScale
 70
     0
300
3/4" = 1'-0"
140
0.75
141
12.0
290
     0
  0
SCALE
  5
31E
102
{ACAD_REACTORS
330
301
102
}
330
301
100
AcDbScale
 70
     0
300
1" = 1'-0"
140
1.0
141
12.0
290
     0
  0
SCALE
  5
31F
102
{ACAD_REACTORS
330
301
102
}
330
301
100
AcDbScale
 70
     0
300
1-1/2" = 1'-0"
140
1.5
141
12.0
290
     0
  0
SCALE
  5
320
102
{ACAD_REACTORS
330
301
102
}
330
301
100
AcDbScale
 70
     0
300
3" = 1'-0"
140
3.0
141
12.0
290
     0
  0
SCALE
  5
321
102
{ACAD_REACTORS
330
301
102
}
330
301
100
AcDbScale
 70
     0
300
6" = 1'-0"
140
6.0
141
12.0
290
     0
  0
SCALE
  5
322
102
{ACAD_REACTORS
330
301
102
}
330
301
100
AcDbScale
 70
     0
300
1'-0" = 1'-0"
140
12.0
141
12.0
290
     0
  0
VISUALSTYLE
  5
2F
102
{ACAD_REACTORS
330
2A
102
}
102
{ACAD_XDICTIONARY
360
65F
102
}
330
2A
100
AcDbVisualStyle
  2
2dWireframe
 70
     4
 71
     0
 72
     2
 73
     0
 90
        0
 40
-0.6
 41
-30.0
 62
     5
 63
     7
 74
     1
 91
        4
 64
     7
 65
   257
 75
     1
175
     1
 42
1.0
 92
        0
 66
   257
 43
1.0
 76
     1
 77
     6
 78
     2
 67
     7
 79
     5
170
     0
171
     0
290
     0
174
     0
 93
        1
 44
0.0
173
     0
291
     0
 45
0.0
1001
ACAD
1000
AcDbSavedByObjectVersion
1070
     0
  0
VISUALSTYLE
  5
31
102
{ACAD_REACTORS
330
2A
102
}
102
{ACAD_XDICTIONARY
360
663
102
}
330
2A
100
AcDbVisualStyle
  2
3D Hidden
 70
     6
 71
     1
 72
     2
 73
     2
 90
        0
 40
-0.6
 41
-30.0
 62
     5
 63
     7
 74
     2
 91
        2
 64
     7
 65
   257
 75
     2
175
     1
 42
40.0
 92
        0
 66
   257
 43
1.0
 76
     1
 77
     6
 78
     2
 67
     7
 79
     3
170
     0
171
     0
290
     0
174
     0
 93
        1
 44
0.0
173
     0
291
     0
 45
0.0
1001
ACAD
1000
AcDbSavedByObjectVersion
1070
     0
  0
VISUALSTYLE
  5
30
102
{ACAD_REACTORS
330
2A
102
}
102
{ACAD_XDICTIONARY
360
661
102
}
330
2A
100
AcDbVisualStyle
  2
3dWireframe
 70
     5
 71
     0
 72
     2
 73
     0
 90
        0
 40
-0.6
 41
-30.0
 62
     5
 63
     7
 74
     1
 91
        4
 64
     7
 65
   257
 75
     1
175
     1
 42
1.0
 92
        0
 66
   257
 43
1.0
 76
     1
 77
     6
 78
     2
 67
     7
 79
     5
170
     0
171
     0
290
     0
174
     0
 93
        1
 44
0.0
173
     0
291
     0
 45
0.0
1001
ACAD
1000
AcDbSavedByObjectVersion
1070
     0
  0
VISUALSTYLE
  5
32
102
{ACAD_REACTORS
330
2A
102
}
102
{ACAD_XDICTIONARY
360
665
102
}
330
2A
100
AcDbVisualStyle
  2
Basic
 70
     7
 71
     1
 72
     0
 73
     1
 90
        0
 40
-0.6
 41
-30.0
 62
     5
 63
     7
 74
     0
 91
        4
 64
     7
 65
   257
 75
     1
175
     1
 42
1.0
 92
        8
 66
     7
 43
1.0
 76
     1
 77
     6
 78
     2
 67
     7
 79
     5
170
     0
171
     0
290
     0
174
     0
 93
        1
 44
0.0
173
     0
291
     1
 45
0.0
1001
ACAD
1000
AcDbSavedByObjectVersion
1070
     0
  0
VISUALSTYLE
  5
36
102
{ACAD_REACTORS
330
2A
102
}
102
{ACAD_XDICTIONARY
360
66D
102
}
330
2A
100
AcDbVisualStyle
  2
Brighten
 70
    12
 71
     2
 72
     2
 73
     0
 90
        0
 40
-0.6
 41
-30.0
 62
     5
 63
     7
 74
     1
 91
        4
 64
     7
 65
   257
 75
     1
175
     1
 42
1.0
 92
        8
 66
     7
 43
1.0
 76
     1
 77
     6
 78
     2
 67
     7
 79
     5
170
     0
171
     0
290
     0
174
     0
 93
        1
 44
50.0
173
     0
291
     1
 45
0.0
1001
ACAD
1000
AcDbSavedByObjectVersion
1070
     0
  0
VISUALSTYLE
  5
3A
102
{ACAD_REACTORS
330
2A
102
}
102
{ACAD_XDICTIONARY
360
675
102
}
330
2A
100
AcDbVisualStyle
  2
ColorChange
 70
    16
 71
     2
 72
     2
 73
     3
 90
        0
 40
-0.6
 41
-30.0
 62
     5
 63
     8
 74
     1
 91
        4
 64
     7
 65
   257
 75
     1
175
     1
 42
1.0
 92
        8
 66
     8
 43
1.0
 76
     1
 77
     6
 78
     2
 67
     7
 79
     5
170
     0
171
     0
290
     0
174
     0
 93
        1
 44
0.0
173
     0
291
     1
 45
0.0
1001
ACAD
1000
AcDbSavedByObjectVersion
1070
     0
  0
VISUALSTYLE
  5
34
102
{ACAD_REACTORS
330
2A
102
}
102
{ACAD_XDICTIONARY
360
669
102
}
330
2A
100
AcDbVisualStyle
  2
Conceptual
 70
     9
 71
     3
 72
     2
 73
     0
 90
        0
 40
-0.6
 41
-30.0
 62
     5
 63
     7
 74
     2
 91
        2
 64
     7
 65
   257
 75
     1
175
     1
 42
40.0
 92
        8
 66
     7
 43
1.0
 76
     1
 77
     6
 78
     2
 67
     7
 79
     3
170
     0
171
     0
290
     0
174
     0
 93
        1
 44
0.0
173
     0
291
     0
 45
0.0
1001
ACAD
1000
AcDbSavedByObjectVersion
1070
     0
  0
VISUALSTYLE
  5
35
102
{ACAD_REACTORS
330
2A
102
}
102
{ACAD_XDICTIONARY
360
66B
102
}
330
2A
100
AcDbVisualStyle
  2
Dim
 70
    11
 71
     2
 72
     2
 73
     0
 90
        0
 40
-0.6
 41
-30.0
 62
     5
 63
     7
 74
     1
 91
        4
 64
     7
 65
   257
 75
     1
175
     1
 42
1.0
 92
        8
 66
     7
 43
1.0
 76
     1
 77
     6
 78
     2
 67
     7
 79
     5
170
     0
171
     0
290
     0
174
     0
 93
        1
 44
-50.0
173
     0
291
     1
 45
0.0
1001
ACAD
1000
AcDbSavedByObjectVersion
1070
     0
  0
VISUALSTYLE
  5
39
102
{ACAD_REACTORS
330
2A
102
}
102
{ACAD_XDICTIONARY
360
673
102
}
330
2A
100
AcDbVisualStyle
  2
Facepattern
 70
    15
 71
     2
 72
     2
 73
     0
 90
        0
 40
-0.6
 41
-30.0
 62
     5
 63
     7
 74
     1
 91
        4
 64
     7
 65
   257
 75
     1
175
     1
 42
1.0
 92
        8
 66
     7
 43
1.0
 76
     1
 77
     6
 78
     2
 67
     7
 79
     5
170
     0
171
     0
290
     0
174
     0
 93
        1
 44
0.0
173
     0
291
     1
 45
0.0
1001
ACAD
1000
AcDbSavedByObjectVersion
1070
     0
  0
VISUALSTYLE
  5
2B
102
{ACAD_REACTORS
330
2A
102
}
102
{ACAD_XDICTIONARY
360
657
102
}
330
2A
100
AcDbVisualStyle
  2
Flat
 70
     0
 71
     2
 72
     1
 73
     1
 90
        2
 40
-0.6
 41
30.0
 62
     5
 63
     7
 74
     0
 91
        4
 64
     7
 65
   257
 75
     1
175
     1
 42
1.0
 92
        8
 66
     7
 43
1.0
 76
     1
 77
     6
 78
     2
 67
     7
 79
     5
170
     0
171
     0
290
     0
174
     0
 93
       13
 44
0.0
173
     0
291
     1
 45
0.0
1001
ACAD
1000
AcDbSavedByObjectVersion
1070
     0
  0
VISUALSTYLE
  5
2C
102
{ACAD_REACTORS
330
2A
102
}
102
{ACAD_XDICTIONARY
360
659
102
}
330
2A
100
AcDbVisualStyle
  2
FlatWithEdges
 70
     1
 71
     2
 72
     1
 73
     1
 90
        2
 40
-0.6
 41
30.0
 62
     5
 63
     7
 74
     1
 91
        4
 64
     7
 65
   257
 75
     1
175
     1
 42
1.0
 92
        0
 66
   257
 43
1.0
 76
     1
 77
     6
 78
     2
 67
     7
 79
     5
170
     0
171
     0
290
     0
174
     0
 93
       13
 44
0.0
173
     0
291
     1
 45
0.0
1001
ACAD
1000
AcDbSavedByObjectVersion
1070
     0
  0
VISUALSTYLE
  5
2D
102
{ACAD_REACTORS
330
2A
102
}
102
{ACAD_XDICTIONARY
360
65B
102
}
330
2A
100
AcDbVisualStyle
  2
Gouraud
 70
     2
 71
     2
 72
     2
 73
     1
 90
        2
 40
-0.6
 41
30.0
 62
     5
 63
     7
 74
     0
 91
        4
 64
     7
 65
   257
 75
     1
175
     1
 42
1.0
 92
        0
 66
     7
 43
1.0
 76
     1
 77
     6
 78
     2
 67
     7
 79
     5
170
     0
171
     0
290
     0
174
     0
 93
       13
 44
0.0
173
     0
291
     1
 45
0.0
1001
ACAD
1000
AcDbSavedByObjectVersion
1070
     0
  0
VISUALSTYLE
  5
2E
102
{ACAD_REACTORS
330
2A
102
}
102
{ACAD_XDICTIONARY
360
65D
102
}
330
2A
100
AcDbVisualStyle
  2
GouraudWithEdges
 70
     3
 71
     2
 72
     2
 73
     1
 90
        2
 40
-0.6
 41
30.0
 62
     5
 63
     7
 74
     1
 91
        4
 64
     7
 65
   257
 75
     1
175
     1
 42
1.0
 92
        0
 66
   257
 43
1.0
 76
     1
 77
     6
 78
     2
 67
     7
 79
     5
170
     0
171
     0
290
     0
174
     0
 93
       13
 44
0.0
173
     0
291
     1
 45
0.0
1001
ACAD
1000
AcDbSavedByObjectVersion
1070
     0
  0
VISUALSTYLE
  5
38
102
{ACAD_REACTORS
330
2A
102
}
102
{ACAD_XDICTIONARY
360
671
102
}
330
2A
100
AcDbVisualStyle
  2
Linepattern
 70
    14
 71
     2
 72
     2
 73
     0
 90
        0
 40
-0.6
 41
-30.0
 62
     5
 63
     7
 74
     1
 91
        4
 64
     7
 65
   257
 75
     7
175
     7
 42
1.0
 92
        8
 66
     7
 43
1.0
 76
     1
 77
     6
 78
     2
 67
     7
 79
     5
170
     0
171
     0
290
     0
174
     0
 93
        1
 44
0.0
173
     0
291
     1
 45
0.0
1001
ACAD
1000
AcDbSavedByObjectVersion
1070
     0
  0
VISUALSTYLE
  5
33
102
{ACAD_REACTORS
330
2A
102
}
102
{ACAD_XDICTIONARY
360
667
102
}
330
2A
100
AcDbVisualStyle
  2
Realistic
 70
     8
 71
     2
 72
     2
 73
     0
 90
        0
 40
-0.6
 41
-30.0
 62
     5
 63
     7
 74
     1
 91
        0
 64
     7
 65
   257
 75
     1
175
     1
 42
1.0
 92
        8
 66
     8
 43
1.0
 76
     1
 77
     6
 78
     2
 67
     7
 79
     5
170
     0
171
     0
290
     0
174
     0
 93
       13
 44
0.0
173
     0
291
     0
 45
0.0
1001
ACAD
1000
AcDbSavedByObjectVersion
1070
     0
  0
VISUALSTYLE
  5
37
102
{ACAD_REACTORS
330
2A
102
}
102
{ACAD_XDICTIONARY
360
66F
102
}
330
2A
100
AcDbVisualStyle
  2
Thicken
 70
    13
 71
     2
 72
     2
 73
     0
 90
        0
 40
-0.6
 41
-30.0
 62
     5
 63
     7
 74
     1
 91
        4
 64
     7
 65
   257
 75
     1
175
     1
 42
1.0
 92
       12
 66
     7
 43
1.0
 76
     1
 77
     6
 78
     2
 67
     7
 79
     5
170
     0
171
     0
290
     0
174
     0
 93
        1
 44
0.0
173
     0
291
     1
 45
0.0
1001
ACAD
1000
AcDbSavedByObjectVersion
1070
     0
  0
DICTIONARYVAR
  5
652
102
{ACAD_REACTORS
330
64F
102
}
330
64F
100
DictionaryVariables
280
     0
  1
1:1
  0
DICTIONARYVAR
  5
653
102
{ACAD_REACTORS
330
64F
102
}
330
64F
100
DictionaryVariables
280
     0
  1
2
  0
DICTIONARYVAR
  5
654
102
{ACAD_REACTORS
330
64F
102
}
330
64F
100
DictionaryVariables
280
     0
  1
1
  0
DICTIONARY
  5
679
330
3D
100
AcDbDictionary
280
     1
281
     1
  3
ACAD_XREC_ROUNDTRIP
360
67A
  0
DICTIONARY
  5
677
330
3C
100
AcDbDictionary
280
     1
281
     1
  3
ACAD_XREC_ROUNDTRIP
360
678
  0
DICTIONARY
  5
67B
330
3E
100
AcDbDictionary
280
     1
281
     1
  3
ACAD_XREC_ROUNDTRIP
360
67C
  0
DICTIONARY
  5
65F
330
2F
100
AcDbDictionary
280
     1
281
     1
  3
ACAD_XREC_ROUNDTRIP
360
660
  0
DICTIONARY
  5
663
330
31
100
AcDbDictionary
280
     1
281
     1
  3
ACAD_XREC_ROUNDTRIP
360
664
  0
DICTIONARY
  5
661
330
30
100
AcDbDictionary
280
     1
281
     1
  3
ACAD_XREC_ROUNDTRIP
360
662
  0
DICTIONARY
  5
665
330
32
100
AcDbDictionary
280
     1
281
     1
  3
ACAD_XREC_ROUNDTRIP
360
666
  0
DICTIONARY
  5
66D
330
36
100
AcDbDictionary
280
     1
281
     1
  3
ACAD_XREC_ROUNDTRIP
360
66E
  0
DICTIONARY
  5
675
330
3A
100
AcDbDictionary
280
     1
281
     1
  3
ACAD_XREC_ROUNDTRIP
360
676
  0
DICTIONARY
  5
669
330
34
100
AcDbDictionary
280
     1
281
     1
  3
ACAD_XREC_ROUNDTRIP
360
66A
  0
DICTIONARY
  5
66B
330
35
100
AcDbDictionary
280
     1
281
     1
  3
ACAD_XREC_ROUNDTRIP
360
66C
  0
DICTIONARY
  5
673
330
39
100
AcDbDictionary
280
     1
281
     1
  3
ACAD_XREC_ROUNDTRIP
360
674
  0
DICTIONARY
  5
657
330
2B
100
AcDbDictionary
280
     1
281
     1
  3
ACAD_XREC_ROUNDTRIP
360
658
  0
DICTIONARY
  5
659
330
2C
100
AcDbDictionary
280
     1
281
     1
  3
ACAD_XREC_ROUNDTRIP
360
65A
  0
DICTIONARY
  5
65B
330
2D
100
AcDbDictionary
280
     1
281
     1
  3
ACAD_XREC_ROUNDTRIP
360
65C
  0
DICTIONARY
  5
65D
330
2E
100
AcDbDictionary
280
     1
281
     1
  3
ACAD_XREC_ROUNDTRIP
360
65E
  0
DICTIONARY
  5
671
330
38
100
AcDbDictionary
280
     1
281
     1
  3
ACAD_XREC_ROUNDTRIP
360
672
  0
DICTIONARY
  5
667
330
33
100
AcDbDictionary
280
     1
281
     1
  3
ACAD_XREC_ROUNDTRIP
360
668
  0
DICTIONARY
  5
66F
330
37
100
AcDbDictionary
280
     1
281
     1
  3
ACAD_XREC_ROUNDTRIP
360
670
  0
XRECORD
  5
67A
102
{ACAD_REACTORS
330
679
102
}
330
679
100
AcDbXrecord
280
     1
102
MATERIAL
148
0.0
149
0.0
149
0.0
 93
        0
 94
      127
282
     0
 72
     1
 77
     1
171
     1
175
     1
179
     1
273
     0
  0
XRECORD
  5
678
102
{ACAD_REACTORS
330
677
102
}
330
677
100
AcDbXrecord
280
     1
102
MATERIAL
148
0.0
149
0.0
149
0.0
 93
        0
 94
      127
282
     0
 72
     1
 77
     1
171
     1
175
     1
179
     1
273
     0
  0
XRECORD
  5
67C
102
{ACAD_REACTORS
330
67B
102
}
330
67B
100
AcDbXrecord
280
     1
102
MATERIAL
148
0.0
149
0.0
149
0.0
 93
        0
 94
      127
282
     0
 72
     1
 77
     1
171
     1
175
     1
179
     1
273
     0
  0
XRECORD
  5
660
102
{ACAD_REACTORS
330
65F
102
}
330
65F
100
AcDbXrecord
280
     1
102
RTVSPropertyOp0
 70
     1
102
RTVSPropertyOp1
 70
     1
102
RTVSPropertyOp2
 70
     1
102
RTVSPropertyOp3
 70
     1
102
RTVSPropertyOp4
 70
     1
102
RTVSPropertyOp5
 70
     1
102
RTVSPropertyOp6
 70
     1
102
RTVSPropertyOp7
 70
     1
102
RTVSPropertyOp8
 70
     1
102
RTVSPropertyOp9
 70
     1
102
RTVSPropertyOp10
 70
     1
102
RTVSPropertyOp11
 70
     1
102
RTVSPropertyOp12
 70
     1
102
RTVSPropertyOp13
 70
     1
102
RTVSPropertyOp14
 70
     1
102
RTVSPropertyOp15
 70
     1
102
RTVSPropertyOp16
 70
     1
102
RTVSPropertyOp17
 70
     1
102
RTVSPropertyOp18
 70
     1
102
RTVSPropertyOp19
 70
     1
102
RTVSPropertyOp20
 70
     1
102
RTVSPropertyOp21
 70
     1
102
RTVSPropertyOp22
 70
     1
102
RTVSPropertyOp23
 70
     1
102
RTVSPropertyOp24
 70
     1
102
RTVSPropertyOp25
 70
     1
102
RTVSPropertyOp26
 70
     1
102
RTVSPropertyOp27
 70
     1
  0
XRECORD
  5
664
102
{ACAD_REACTORS
330
663
102
}
330
663
100
AcDbXrecord
280
     1
102
RTVSPropertyOp0
 70
     1
102
RTVSPropertyOp1
 70
     1
102
RTVSPropertyOp2
 70
     1
102
RTVSPropertyOp3
 70
     1
102
RTVSPropertyOp4
 70
     1
102
RTVSPropertyOp5
 70
     1
102
RTVSPropertyOp6
 70
     1
102
RTVSPropertyOp7
 70
     1
102
RTVSPropertyOp8
 70
     1
102
RTVSPropertyOp9
 70
     1
102
RTVSPropertyOp10
 70
     1
102
RTVSPropertyOp11
 70
     1
102
RTVSPropertyOp12
 70
     1
102
RTVSPropertyOp13
 70
     1
102
RTVSPropertyOp14
 70
     1
102
RTVSPropertyOp15
 70
     1
102
RTVSPropertyOp16
 70
     1
102
RTVSPropertyOp17
 70
     1
102
RTVSPropertyOp18
 70
     1
102
RTVSPropertyOp19
 70
     1
102
RTVSPropertyOp20
 70
     1
102
RTVSPropertyOp21
 70
     1
102
RTVSPropertyOp22
 70
     1
102
RTVSPropertyOp23
 70
     1
102
RTVSPropertyOp24
 70
     1
102
RTVSPropertyOp25
 70
     1
102
RTVSPropertyOp26
 70
     1
102
RTVSPropertyOp27
 70
     1
  0
XRECORD
  5
662
102
{ACAD_REACTORS
330
661
102
}
330
661
100
AcDbXrecord
280
     1
102
RTVSPropertyOp0
 70
     1
102
RTVSPropertyOp1
 70
     1
102
RTVSPropertyOp2
 70
     1
102
RTVSPropertyOp3
 70
     1
102
RTVSPropertyOp4
 70
     1
102
RTVSPropertyOp5
 70
     1
102
RTVSPropertyOp6
 70
     1
102
RTVSPropertyOp7
 70
     1
102
RTVSPropertyOp8
 70
     1
102
RTVSPropertyOp9
 70
     1
102
RTVSPropertyOp10
 70
     1
102
RTVSPropertyOp11
 70
     1
102
RTVSPropertyOp12
 70
     1
102
RTVSPropertyOp13
 70
     1
102
RTVSPropertyOp14
 70
     1
102
RTVSPropertyOp15
 70
     1
102
RTVSPropertyOp16
 70
     1
102
RTVSPropertyOp17
 70
     1
102
RTVSPropertyOp18
 70
     1
102
RTVSPropertyOp19
 70
     1
102
RTVSPropertyOp20
 70
     1
102
RTVSPropertyOp21
 70
     1
102
RTVSPropertyOp22
 70
     1
102
RTVSPropertyOp23
 70
     1
102
RTVSPropertyOp24
 70
     1
102
RTVSPropertyOp25
 70
     1
102
RTVSPropertyOp26
 70
     1
102
RTVSPropertyOp27
 70
     1
  0
XRECORD
  5
666
102
{ACAD_REACTORS
330
665
102
}
330
665
100
AcDbXrecord
280
     1
102
RTVSPropertyOp0
 70
     1
102
RTVSPropertyOp1
 70
     1
102
RTVSPropertyOp2
 70
     1
102
RTVSPropertyOp3
 70
     1
102
RTVSPropertyOp4
 70
     1
102
RTVSPropertyOp5
 70
     1
102
RTVSPropertyOp6
 70
     1
102
RTVSPropertyOp7
 70
     1
102
RTVSPropertyOp8
 70
     1
102
RTVSPropertyOp9
 70
     1
102
RTVSPropertyOp10
 70
     1
102
RTVSPropertyOp11
 70
     1
102
RTVSPropertyOp12
 70
     1
102
RTVSPropertyOp13
 70
     1
102
RTVSPropertyOp14
 70
     1
102
RTVSPropertyOp15
 70
     1
102
RTVSPropertyOp16
 70
     1
102
RTVSPropertyOp17
 70
     1
102
RTVSPropertyOp18
 70
     1
102
RTVSPropertyOp19
 70
     1
102
RTVSPropertyOp20
 70
     1
102
RTVSPropertyOp21
 70
     1
102
RTVSPropertyOp22
 70
     1
102
RTVSPropertyOp23
 70
     1
102
RTVSPropertyOp24
 70
     1
102
RTVSPropertyOp25
 70
     1
102
RTVSPropertyOp26
 70
     1
102
RTVSPropertyOp27
 70
     1
  0
XRECORD
  5
66E
102
{ACAD_REACTORS
330
66D
102
}
330
66D
100
AcDbXrecord
280
     1
102
RTVSPropertyOp0
 70
     1
102
RTVSPropertyOp1
 70
     1
102
RTVSPropertyOp2
 70
     1
102
RTVSPropertyOp3
 70
     1
102
RTVSPropertyOp4
 70
     1
102
RTVSPropertyOp5
 70
     1
102
RTVSPropertyOp6
 70
     1
102
RTVSPropertyOp7
 70
     1
102
RTVSPropertyOp8
 70
     1
102
RTVSPropertyOp9
 70
     1
102
RTVSPropertyOp10
 70
     1
102
RTVSPropertyOp11
 70
     1
102
RTVSPropertyOp12
 70
     1
102
RTVSPropertyOp13
 70
     1
102
RTVSPropertyOp14
 70
     1
102
RTVSPropertyOp15
 70
     1
102
RTVSPropertyOp16
 70
     1
102
RTVSPropertyOp17
 70
     1
102
RTVSPropertyOp18
 70
     1
102
RTVSPropertyOp19
 70
     1
102
RTVSPropertyOp20
 70
     1
102
RTVSPropertyOp21
 70
     1
102
RTVSPropertyOp22
 70
     1
102
RTVSPropertyOp23
 70
     1
102
RTVSPropertyOp24
 70
     1
102
RTVSPropertyOp25
 70
     1
102
RTVSPropertyOp26
 70
     1
102
RTVSPropertyOp27
 70
     1
  0
XRECORD
  5
676
102
{ACAD_REACTORS
330
675
102
}
330
675
100
AcDbXrecord
280
     1
102
RTVSPropertyOp0
 70
     1
102
RTVSPropertyOp1
 70
     1
102
RTVSPropertyOp2
 70
     1
102
RTVSPropertyOp3
 70
     1
102
RTVSPropertyOp4
 70
     1
102
RTVSPropertyOp5
 70
     1
102
RTVSPropertyOp6
 70
     1
102
RTVSPropertyOp7
 70
     1
102
RTVSPropertyOp8
 70
     1
102
RTVSPropertyOp9
 70
     1
102
RTVSPropertyOp10
 70
     1
102
RTVSPropertyOp11
 70
     1
102
RTVSPropertyOp12
 70
     1
102
RTVSPropertyOp13
 70
     1
102
RTVSPropertyOp14
 70
     1
102
RTVSPropertyOp15
 70
     1
102
RTVSPropertyOp16
 70
     1
102
RTVSPropertyOp17
 70
     1
102
RTVSPropertyOp18
 70
     1
102
RTVSPropertyOp19
 70
     1
102
RTVSPropertyOp20
 70
     1
102
RTVSPropertyOp21
 70
     1
102
RTVSPropertyOp22
 70
     1
102
RTVSPropertyOp23
 70
     1
102
RTVSPropertyOp24
 70
     1
102
RTVSPropertyOp25
 70
     1
102
RTVSPropertyOp26
 70
     1
102
RTVSPropertyOp27
 70
     1
  0
XRECORD
  5
66A
102
{ACAD_REACTORS
330
669
102
}
330
669
100
AcDbXrecord
280
     1
102
RTVSPropertyOp0
 70
     1
102
RTVSPropertyOp1
 70
     1
102
RTVSPropertyOp2
 70
     1
102
RTVSPropertyOp3
 70
     1
102
RTVSPropertyOp4
 70
     1
102
RTVSPropertyOp5
 70
     1
102
RTVSPropertyOp6
 70
     1
102
RTVSPropertyOp7
 70
     1
102
RTVSPropertyOp8
 70
     1
102
RTVSPropertyOp9
 70
     1
102
RTVSPropertyOp10
 70
     1
102
RTVSPropertyOp11
 70
     1
102
RTVSPropertyOp12
 70
     1
102
RTVSPropertyOp13
 70
     1
102
RTVSPropertyOp14
 70
     1
102
RTVSPropertyOp15
 70
     1
102
RTVSPropertyOp16
 70
     1
102
RTVSPropertyOp17
 70
     1
102
RTVSPropertyOp18
 70
     1
102
RTVSPropertyOp19
 70
     1
102
RTVSPropertyOp20
 70
     1
102
RTVSPropertyOp21
 70
     1
102
RTVSPropertyOp22
 70
     1
102
RTVSPropertyOp23
 70
     1
102
RTVSPropertyOp24
 70
     1
102
RTVSPropertyOp25
 70
     1
102
RTVSPropertyOp26
 70
     1
102
RTVSPropertyOp27
 70
     1
  0
XRECORD
  5
66C
102
{ACAD_REACTORS
330
66B
102
}
330
66B
100
AcDbXrecord
280
     1
102
RTVSPropertyOp0
 70
     1
102
RTVSPropertyOp1
 70
     1
102
RTVSPropertyOp2
 70
     1
102
RTVSPropertyOp3
 70
     1
102
RTVSPropertyOp4
 70
     1
102
RTVSPropertyOp5
 70
     1
102
RTVSPropertyOp6
 70
     1
102
RTVSPropertyOp7
 70
     1
102
RTVSPropertyOp8
 70
     1
102
RTVSPropertyOp9
 70
     1
102
RTVSPropertyOp10
 70
     1
102
RTVSPropertyOp11
 70
     1
102
RTVSPropertyOp12
 70
     1
102
RTVSPropertyOp13
 70
     1
102
RTVSPropertyOp14
 70
     1
102
RTVSPropertyOp15
 70
     1
102
RTVSPropertyOp16
 70
     1
102
RTVSPropertyOp17
 70
     1
102
RTVSPropertyOp18
 70
     1
102
RTVSPropertyOp19
 70
     1
102
RTVSPropertyOp20
 70
     1
102
RTVSPropertyOp21
 70
     1
102
RTVSPropertyOp22
 70
     1
102
RTVSPropertyOp23
 70
     1
102
RTVSPropertyOp24
 70
     1
102
RTVSPropertyOp25
 70
     1
102
RTVSPropertyOp26
 70
     1
102
RTVSPropertyOp27
 70
     1
  0
XRECORD
  5
674
102
{ACAD_REACTORS
330
673
102
}
330
673
100
AcDbXrecord
280
     1
102
RTVSPropertyOp0
 70
     1
102
RTVSPropertyOp1
 70
     1
102
RTVSPropertyOp2
 70
     1
102
RTVSPropertyOp3
 70
     1
102
RTVSPropertyOp4
 70
     1
102
RTVSPropertyOp5
 70
     1
102
RTVSPropertyOp6
 70
     1
102
RTVSPropertyOp7
 70
     1
102
RTVSPropertyOp8
 70
     1
102
RTVSPropertyOp9
 70
     1
102
RTVSPropertyOp10
 70
     1
102
RTVSPropertyOp11
 70
     1
102
RTVSPropertyOp12
 70
     1
102
RTVSPropertyOp13
 70
     1
102
RTVSPropertyOp14
 70
     1
102
RTVSPropertyOp15
 70
     1
102
RTVSPropertyOp16
 70
     1
102
RTVSPropertyOp17
 70
     1
102
RTVSPropertyOp18
 70
     1
102
RTVSPropertyOp19
 70
     1
102
RTVSPropertyOp20
 70
     1
102
RTVSPropertyOp21
 70
     1
102
RTVSPropertyOp22
 70
     1
102
RTVSPropertyOp23
 70
     1
102
RTVSPropertyOp24
 70
     1
102
RTVSPropertyOp25
 70
     1
102
RTVSPropertyOp26
 70
     1
102
RTVSPropertyOp27
 70
     1
  0
XRECORD
  5
658
102
{ACAD_REACTORS
330
657
102
}
330
657
100
AcDbXrecord
280
     1
102
RTVSPropertyOp0
 70
     1
102
RTVSPropertyOp1
 70
     1
102
RTVSPropertyOp2
 70
     1
102
RTVSPropertyOp3
 70
     1
102
RTVSPropertyOp4
 70
     1
102
RTVSPropertyOp5
 70
     1
102
RTVSPropertyOp6
 70
     1
102
RTVSPropertyOp7
 70
     1
102
RTVSPropertyOp8
 70
     1
102
RTVSPropertyOp9
 70
     1
102
RTVSPropertyOp10
 70
     1
102
RTVSPropertyOp11
 70
     1
102
RTVSPropertyOp12
 70
     1
102
RTVSPropertyOp13
 70
     1
102
RTVSPropertyOp14
 70
     1
102
RTVSPropertyOp15
 70
     1
102
RTVSPropertyOp16
 70
     1
102
RTVSPropertyOp17
 70
     1
102
RTVSPropertyOp18
 70
     1
102
RTVSPropertyOp19
 70
     1
102
RTVSPropertyOp20
 70
     1
102
RTVSPropertyOp21
 70
     1
102
RTVSPropertyOp22
 70
     1
102
RTVSPropertyOp23
 70
     1
102
RTVSPropertyOp24
 70
     1
102
RTVSPropertyOp25
 70
     1
102
RTVSPropertyOp26
 70
     1
102
RTVSPropertyOp27
 70
     1
  0
XRECORD
  5
65A
102
{ACAD_REACTORS
330
659
102
}
330
659
100
AcDbXrecord
280
     1
102
RTVSPropertyOp0
 70
     1
102
RTVSPropertyOp1
 70
     1
102
RTVSPropertyOp2
 70
     1
102
RTVSPropertyOp3
 70
     1
102
RTVSPropertyOp4
 70
     1
102
RTVSPropertyOp5
 70
     1
102
RTVSPropertyOp6
 70
     1
102
RTVSPropertyOp7
 70
     1
102
RTVSPropertyOp8
 70
     1
102
RTVSPropertyOp9
 70
     1
102
RTVSPropertyOp10
 70
     1
102
RTVSPropertyOp11
 70
     1
102
RTVSPropertyOp12
 70
     1
102
RTVSPropertyOp13
 70
     1
102
RTVSPropertyOp14
 70
     1
102
RTVSPropertyOp15
 70
     1
102
RTVSPropertyOp16
 70
     1
102
RTVSPropertyOp17
 70
     1
102
RTVSPropertyOp18
 70
     1
102
RTVSPropertyOp19
 70
     1
102
RTVSPropertyOp20
 70
     1
102
RTVSPropertyOp21
 70
     1
102
RTVSPropertyOp22
 70
     1
102
RTVSPropertyOp23
 70
     1
102
RTVSPropertyOp24
 70
     1
102
RTVSPropertyOp25
 70
     1
102
RTVSPropertyOp26
 70
     1
102
RTVSPropertyOp27
 70
     1
  0
XRECORD
  5
65C
102
{ACAD_REACTORS
330
65B
102
}
330
65B
100
AcDbXrecord
280
     1
102
RTVSPropertyOp0
 70
     1
102
RTVSPropertyOp1
 70
     1
102
RTVSPropertyOp2
 70
     1
102
RTVSPropertyOp3
 70
     1
102
RTVSPropertyOp4
 70
     1
102
RTVSPropertyOp5
 70
     1
102
RTVSPropertyOp6
 70
     1
102
RTVSPropertyOp7
 70
     1
102
RTVSPropertyOp8
 70
     1
102
RTVSPropertyOp9
 70
     1
102
RTVSPropertyOp10
 70
     1
102
RTVSPropertyOp11
 70
     1
102
RTVSPropertyOp12
 70
     1
102
RTVSPropertyOp13
 70
     1
102
RTVSPropertyOp14
 70
     1
102
RTVSPropertyOp15
 70
     1
102
RTVSPropertyOp16
 70
     1
102
RTVSPropertyOp17
 70
     1
102
RTVSPropertyOp18
 70
     1
102
RTVSPropertyOp19
 70
     1
102
RTVSPropertyOp20
 70
     1
102
RTVSPropertyOp21
 70
     1
102
RTVSPropertyOp22
 70
     1
102
RTVSPropertyOp23
 70
     1
102
RTVSPropertyOp24
 70
     1
102
RTVSPropertyOp25
 70
     1
102
RTVSPropertyOp26
 70
     1
102
RTVSPropertyOp27
 70
     1
  0
XRECORD
  5
65E
102
{ACAD_REACTORS
330
65D
102
}
330
65D
100
AcDbXrecord
280
     1
102
RTVSPropertyOp0
 70
     1
102
RTVSPropertyOp1
 70
     1
102
RTVSPropertyOp2
 70
     1
102
RTVSPropertyOp3
 70
     1
102
RTVSPropertyOp4
 70
     1
102
RTVSPropertyOp5
 70
     1
102
RTVSPropertyOp6
 70
     1
102
RTVSPropertyOp7
 70
     1
102
RTVSPropertyOp8
 70
     1
102
RTVSPropertyOp9
 70
     1
102
RTVSPropertyOp10
 70
     1
102
RTVSPropertyOp11
 70
     1
102
RTVSPropertyOp12
 70
     1
102
RTVSPropertyOp13
 70
     1
102
RTVSPropertyOp14
 70
     1
102
RTVSPropertyOp15
 70
     1
102
RTVSPropertyOp16
 70
     1
102
RTVSPropertyOp17
 70
     1
102
RTVSPropertyOp18
 70
     1
102
RTVSPropertyOp19
 70
     1
102
RTVSPropertyOp20
 70
     1
102
RTVSPropertyOp21
 70
     1
102
RTVSPropertyOp22
 70
     1
102
RTVSPropertyOp23
 70
     1
102
RTVSPropertyOp24
 70
     1
102
RTVSPropertyOp25
 70
     1
102
RTVSPropertyOp26
 70
     1
102
RTVSPropertyOp27
 70
     1
  0
XRECORD
  5
672
102
{ACAD_REACTORS
330
671
102
}
330
671
100
AcDbXrecord
280
     1
102
RTVSPropertyOp0
 70
     1
102
RTVSPropertyOp1
 70
     1
102
RTVSPropertyOp2
 70
     1
102
RTVSPropertyOp3
 70
     1
102
RTVSPropertyOp4
 70
     1
102
RTVSPropertyOp5
 70
     1
102
RTVSPropertyOp6
 70
     1
102
RTVSPropertyOp7
 70
     1
102
RTVSPropertyOp8
 70
     1
102
RTVSPropertyOp9
 70
     1
102
RTVSPropertyOp10
 70
     1
102
RTVSPropertyOp11
 70
     1
102
RTVSPropertyOp12
 70
     1
102
RTVSPropertyOp13
 70
     1
102
RTVSPropertyOp14
 70
     1
102
RTVSPropertyOp15
 70
     1
102
RTVSPropertyOp16
 70
     1
102
RTVSPropertyOp17
 70
     1
102
RTVSPropertyOp18
 70
     1
102
RTVSPropertyOp19
 70
     1
102
RTVSPropertyOp20
 70
     1
102
RTVSPropertyOp21
 70
     1
102
RTVSPropertyOp22
 70
     1
102
RTVSPropertyOp23
 70
     1
102
RTVSPropertyOp24
 70
     1
102
RTVSPropertyOp25
 70
     1
102
RTVSPropertyOp26
 70
     1
102
RTVSPropertyOp27
 70
     1
  0
XRECORD
  5
668
102
{ACAD_REACTORS
330
667
102
}
330
667
100
AcDbXrecord
280
     1
102
RTVSPropertyOp0
 70
     1
102
RTVSPropertyOp1
 70
     1
102
RTVSPropertyOp2
 70
     1
102
RTVSPropertyOp3
 70
     1
102
RTVSPropertyOp4
 70
     1
102
RTVSPropertyOp5
 70
     1
102
RTVSPropertyOp6
 70
     1
102
RTVSPropertyOp7
 70
     1
102
RTVSPropertyOp8
 70
     1
102
RTVSPropertyOp9
 70
     1
102
RTVSPropertyOp10
 70
     1
102
RTVSPropertyOp11
 70
     1
102
RTVSPropertyOp12
 70
     1
102
RTVSPropertyOp13
 70
     1
102
RTVSPropertyOp14
 70
     1
102
RTVSPropertyOp15
 70
     1
102
RTVSPropertyOp16
 70
     1
102
RTVSPropertyOp17
 70
     1
102
RTVSPropertyOp18
 70
     1
102
RTVSPropertyOp19
 70
     1
102
RTVSPropertyOp20
 70
     1
102
RTVSPropertyOp21
 70
     1
102
RTVSPropertyOp22
 70
     1
102
RTVSPropertyOp23
 70
     1
102
RTVSPropertyOp24
 70
     1
102
RTVSPropertyOp25
 70
     1
102
RTVSPropertyOp26
 70
     1
102
RTVSPropertyOp27
 70
     1
  0
XRECORD
  5
670
102
{ACAD_REACTORS
330
66F
102
}
330
66F
100
AcDbXrecord
280
     1
102
RTVSPropertyOp0
 70
     1
102
RTVSPropertyOp1
 70
     1
102
RTVSPropertyOp2
 70
     1
102
RTVSPropertyOp3
 70
     1
102
RTVSPropertyOp4
 70
     1
102
RTVSPropertyOp5
 70
     1
102
RTVSPropertyOp6
 70
     1
102
RTVSPropertyOp7
 70
     1
102
RTVSPropertyOp8
 70
     1
102
RTVSPropertyOp9
 70
     1
102
RTVSPropertyOp10
 70
     1
102
RTVSPropertyOp11
 70
     1
102
RTVSPropertyOp12
 70
     1
102
RTVSPropertyOp13
 70
     1
102
RTVSPropertyOp14
 70
     1
102
RTVSPropertyOp15
 70
     1
102
RTVSPropertyOp16
 70
     1
102
RTVSPropertyOp17
 70
     1
102
RTVSPropertyOp18
 70
     1
102
RTVSPropertyOp19
 70
     1
102
RTVSPropertyOp20
 70
     1
102
RTVSPropertyOp21
 70
     1
102
RTVSPropertyOp22
 70
     1
102
RTVSPropertyOp23
 70
     1
102
RTVSPropertyOp24
 70
     1
102
RTVSPropertyOp25
 70
     1
102
RTVSPropertyOp26
 70
     1
102
RTVSPropertyOp27
 70
     1
  0
ENDSEC
  0
SECTION
  2
THUMBNAILIMAGE
 90
    16364
310
28000000B40000005500000001000800000000000000000000000000000000000000000000000000FFFFFF00FF000000FFFF000000FF000000FFFF000000FF00FF00FF000000000080808000C0C0C000FF000000FF7F7F00A5000000A55252007F0000007F3F3F004C0000004C2626002600000026131300FF3F0000FF9F7F
310
00A5290000A56752007F1F00007F4F3F004C1300004C2F26002609000026171300FF7F0000FFBF7F00A5520000A57C52007F3F00007F5F3F004C2600004C39260026130000261C1300FFBF0000FFDF7F00A57C0000A59152007F5F00007F6F3F004C3900004C422600261C000026211300FFFF0000FFFF7F00A5A50000A5A5
310
52007F7F00007F7F3F004C4C00004C4C26002626000026261300BFFF0000DFFF7F007CA5000091A552005F7F00006F7F3F00394C0000424C26001C260000212613007FFF0000BFFF7F0052A500007CA552003F7F00005F7F3F00264C0000394C2600132600001C2613003FFF00009FFF7F0029A5000067A552001F7F00004F
310
7F3F00134C00002F4C2600092600001726130000FF00007FFF7F0000A5000052A55200007F00003F7F3F00004C0000264C2600002600001326130000FF3F007FFF9F0000A5290052A56700007F1F003F7F4F00004C1300264C2F00002609001326170000FF7F007FFFBF0000A5520052A57C00007F3F003F7F5F00004C2600
310
264C39000026130013261C0000FFBF007FFFDF0000A57C0052A59100007F5F003F7F6F00004C3900264C420000261C001326210000FFFF007FFFFF0000A5A50052A5A500007F7F003F7F7F00004C4C00264C4C00002626001326260000BFFF007FDFFF00007CA5005291A500005F7F003F6F7F0000394C0026424C00001C26
310
0013212600007FFF007FBFFF000052A500527CA500003F7F003F5F7F0000264C0026394C0000132600131C2600003FFF007F9FFF000029A5005267A500001F7F003F4F7F0000134C00262F4C0000092600131726000000FF007F7FFF000000A5005252A50000007F003F3F7F0000004C0026264C0000002600131326003F00
310
FF009F7FFF002900A5006752A5001F007F004F3F7F0013004C002F264C0009002600171326007F00FF00BF7FFF005200A5007C52A5003F007F005F3F7F0026004C0039264C00130026001C132600BF00FF00DF7FFF007C00A5009152A5005F007F006F3F7F0039004C0042264C001C00260021132600FF00FF00FF7FFF00A5
310
00A500A552A5007F007F007F3F7F004C004C004C264C002600260026132600FF00BF00FF7FDF00A5007C00A55291007F005F007F3F6F004C0039004C26420026001C0026132100FF007F00FF7FBF00A5005200A5527C007F003F007F3F5F004C0026004C2639002600130026131C00FF003F00FF7F9F00A5002900A5526700
310
7F001F007F3F4F004C0013004C262F002600090026131700000000002D2D2D005B5B5B0089898900B7B7B700B3B3B30000000000000000000000000000000000000000000000000000000000000000000000000000000000000000000000000000000000000000000000000000000000000707070707070707070707070707
310
07070707070707070707070707070707070707070707070707070707070707070707070700000000000000000000000000000000000000000000000000000000000000000000000000000000000000000000000000000000000000000000000000000000000000000000000000000000000000000000000000000000000000
310
00000000000000000000000000000000000000000000000000000000000000000000000000070707070707070707070707070707070707070707070707070707070707070707070707070707070707070707070707070707070707000000000000000000000000000000000000000000000000000000000000000000000000
310
00000000000000000000000000000000000000000000000000000000000000000000000000000000000000000000000000000000000000000000000000000000000000000000000000000000000000000000000000000000960707070707070707070707070707070707070707070707070707070707070707070707070707
310
07070707070707070707070707070707070796000000000000000000000000000000000000000000000000000000000000000000000000000000000000000000000000000000000000000000000000000000000000000000000000000000000000000000000000000000000000000000000000000000000000000000000000
310
00000000000000000000000000009607070707070707070707070707070707070707070707070707070707070707070707070707070707070707070707070707070707070707079600000000000000000000000000000000000000000000000000000000000000000000000000000000000000000000000000000000000000
310
00000000000000000000000000000000000000000000000000000000000000000000000000000000000000000000000000000000000000000000000000000000000000960707070707070707070707070707070707070707070707070707070707070707070707070707070707070707070707070707070707070707960000
310
00000000000000000000000000000000000000000000000000000000000000000000000000000000000000000000000000000000000000000000000000000000000000000000000000000000000000000000000000000000000000000000000000000000000000000000000000000000000000000000000096070707070707
310
07070707070707070707070707070707070707070707070707070707070707070707070707070707070707070707070707079600000000000000000000000000000000000000000000000000000000000000000000000000000000000000000000000000000000000000000000000000000000000000000000000000000000
310
00000000000000000000000000000000000000000000000000000000000000000000000000000000000000000000960707070707070707070707070707070707070707070707070707070707070707070707070707070707070707070707070707070707070707960000000000000000000000000000000000000000000000
310
00000000000000000000000000000000000000000000000000000000000000000000000000000000000000000000000000000000000000000000000000000000000000000000000000000000000000000000000000000000000000000000000000000096070707070707070000000005050505050505050505050505050505
310
05050505050505050505050505050505050505050000070707070707079600000000000000000000000000000000000000000000000000000000000000000000000000000000000000000000000000000000000000000000000000000000000000000000000000000000000000000000000000000000000000000000000000
310
00000000000000000000000000000000000000000000000000960707070707070700000000050505050505050505050505050505050505050505050505050505050505050505050505000007070707070707960000000000000000000000000000000000000000000000000000000000000000000000000000000000000000
310
00000000000000000000000000000000000000000000000000000000000000000000000000000000000000000000000000000000000000000000000000000000000000000000000000000000000096070707070707070000000005050505050505050505050505050505050505050505050505050505050505050505050500
310
00070707070707079600000000000000000000000000000000000000000000000000000000000000000000000000000000000000000000000000000000000000000000000000000000000000000000000000000000000000000000000000000000000000000000000000000000000000000000000000000000000000000000
310
00000000960707070707070700000000050505050505050505050505050505050505050505050505050505050505050505050505000007070707070707960000000000000000000000000000000000000000000000000000000000000000000000000000000000000000000000000000000000000000000000000000000000
310
00000000000000000000000000000000000000000000000000000000000000000000000000000000000000000000000000000000000000000096070707070707070000000005050505050505050505050505050505050505050505050505050505050505050505050500000707070707070796000000000000000000000000
310
00000000000000000000000000000000000000000000000000000000000000000000000000000000000000000000000000000000000000000000000000000000000000000000000000000000000000000000000000000000000000000000000000000000000000000000000000009607070707070707000000000505050505
310
05050505050505050505050505050505050505050505050505050505050505000007070707070707960000000000000000000000000000000000000000000000000000000000000000000000000000000000000000000000000000000000000000000000000000000000000000000000000000000000000000000000000000
310
00000000000000000000000000000000000000000000000000000000000000000000000096070707070707070000000005050505050505050505050505050505050505050505050505050505050505050505050500000707070707070796000000000000000000000000000000000000000000000000000000000000000000
310
00000000000000000000000000000000000000000000000000000000000000000000000000000000000000000000000000000000000000000000000000000000000000000000000000000000000000000000000000000000009607070707070707050505050505050505050505050505050505050505050505050505050505
310
05050505050505050505000007070707070707960000000000000000000000000000000000000000000000000000000000000000000000000000000000000000000000000000000000000000000000000000000000000000000000000000000000000000000000000000000000000000000000000000000000000000000000
310
00000000000000000000000000000096070707070707070000050505050505050505050505050505050505050505050505050505050505050505050505050500000707070707070796000000000000000000000000000000000000000000000000000000000000000000000000000000000000000000000000000000000000
310
00000000000000000000000000000000000000000000000000000000000000000000000000000000000000000000000000000000000000000000000000000000000000009607070707070707000000000005050505050505050505050505050505050505050505050505050505050505050505000000070707070707079600
310
00000000000000000000000000000000000000000000000000000000000000000000000000000000000000000000000000000000000000000000000000000000000000000000000000000000000000000000000000000000000000000000000000000000000000000000000000000000000000000000000000960707070707
310
07070000000000000005050505050505050505050505050505050505050505050505050505050500000000000707070707070796000000000000000000000000000000000000000000000000000000000000000000000000000000000000000000000000000000000000000000000000000000000000000000000000000000
310
00000000000000000000000000000000000000000000000000000000000000000000000000000000000000000000009607070707070707000000000000000007070707071E1E1E1E1E1E1E1E1E1E1E1E1E1E1E1E1E1E0707070000000000000000070707070707079600000000000000000000000000000000000000000000
310
000000000000000000000000000000000000000000000000000000000000000000000000000000000000000000000000000000000000000000000000000000000000000000000000000000000000000000000000000000000000000000000000000000009607070707070707000000000000000007070707051E1E1E1E1E1E
310
1E1E1E1E1E1E1E1E1E1E1E1E07070700000000000000000707070707070796000000000000000000000000000000000000000000000000000000000000000000000000000000000000000000000000000000000000000000000000000000000000000000000000000000000000000000000000000000000000000000000000
310
0000000000000000000000000000000000000000000000000000960707070707070700000000000000000707070707070707071E1E1E1E1E1E1E1E1E1E1E1E1E1E1E1E070000000000000000070707070707079600000000000000000000000000000000000000000000000000000000000000000000000000000000000000
310
00000000000000000000000000000000000000000000000000000000000000000000000000000000000000000000000000000000000000000000000000000000000000000000000000000000000000960707070707070700000000000000000707070707070707071E1E1E1E1E1E1E1E1E1E1E1E1E1E1E1E07000000000000
310
00000707070707070796000000000000000000000000000000000000000000000000000000000000000000000000000000000000000000000000000000000000000000000000000000000000000000000000000000000000000000000000000000000000000000000000000000000000000000000000000000000000000000
310
000000000096070707070707070000000000000000070707071E1E1E1E1E1E1E1E1E1E1E1E1E1E1E1E1E1E1E1E1E070000000000000000070707070707079600000000000000000000000000000000000000000000000000000000000000000000000000000000000000000000000000000000000000000000000000000000
310
000000000000000000000000000000000000000000000000000000000000000000000000000000000000000000000000000000000000000000009607070707070707000000000000000007070707071E1E1E1E1E1E1E1E1E1E1E1E1E1E1E1E1E1E070707000000000000000007070707070707960000000000000000000000
310
00000000000000000000000000000000000000000000000000000000000000000000000000000000000000000000000000000000000000000000000000000000000000000000000000000000000000000000000000000000000000000000000000000000000000000000000000000096070707070707070000000000000000
310
070707071E1E1E1E1E1E1E1E1E1E1E1E1E1E1E1E1E1E1E1E1E070000000000000000070707070707079600000000000000000000000000000000000000000000000000000000000000000000000000000000000000000000000000000000000000000000000000000000000000000000000000000000000000000000000000
310
0000000000000000000000000000000000000000000000000000000000000000000000000096070707070707070000000000000000070707071E07071E0707070707071E0707070707071E1E1E1E07000000000000000007070707070707960000000000000000000000000000000000000000000000000000000000000000
310
00000000000000000000000000000000000000000000000000000000000000000000000000000000000000000000000000000000000000000000000000000000000000000000000000000000000000000000000000000000000096070707070707070000000000000000070707071E030303031E1E1E1E1E1E1E1E1E1E1E1E
310
1E1E1E1E070000000000000000070707070707079600000000000000000000000000000000000000000000000000000000000000000000000000000000000000000000000000000000000000000000000000000000000000000000000000000000000000000000000000000000000000000000000000000000000000000000
310
00000000000000000000000000000000960707070707070700000000000000000707070606030303031E1E1E1E1E1E1E1E1E1E1E1E1E1E1E1E07000000000000000007070707070707960000000000000000000000000000000000000000000000000000000000000000000000000000000000000000000000000000000000
310
000000000000000000000000000000000000000000000000000000000000000000000000000000000000000000000000000000000000000000000000000000000000000000960707070707070700000000000000000303030303030303030303031E1E1E1E1E1E1E1E1E1E1E1E1E0700000000000000000707070707070796
310
00000000000000000000000000000000000000000000000000000000000000000000000000000000000000000000000000000000000000000000000000000000000000000000000000000000000000000000000000000000000000000000000000000000000000000000000000000000000000000000000000009607070707
310
0707070000000000000003030303030303030303030303031E1E1E1E1E1E1E1E1E1E030707000000000000000007070707070707960000000000000000000000000000000000000000000000000000000000000000000000000000000000000000000000000000000000000000000000000000000000000000000000000000
310
0000000000000000000000000000000000000000000000000000000000000000000000000000000000000000000000009607070707070707000000000000000303030303030303030303030303031E1E1E1E1E1E1E1E1E1E1E0700000000000000000707070707070796000000000000000000000000000000000000000000
310
00000000000000000000000000000000000000000000000000000000000000000000000000000000000000000000000000000000000000000000000000000000000000000000000000000000000000000000000000000000000000000000000000000000009607070707070707000000000000030303030303030303030303
310
030303031E0707070707071E1E1E1E07000000000000000007070707070707960000000000000000000000000000000000000000000000000000000000000000000000000000000000000000000000000000000000000000000000000000000000000000000000000000000000000000000000000000000000000000000000
310
000000000000000000000000000000000000000000000000000000960707070707070700000000000003030303030303030303030303030303031E1E1E1E1E1E1E1E07070700000000000000000707070707070796000000000000000000000000000000000000000000000000000000000000000000000000000000000000
310
00000000000000000000000000000000000000000000000000000000000000000000000000000000000000000000000000000000000000000000000000000000000000000000000000000000000000009607070707070707000000000000030303030303030303030303030303030305050505050505070707070000000000
310
00000007070707070707960000000000000000000000000000000000000000000000000000000000000000000000000000000000000000000000000000000000000000000000000000000000000000000000000000000000000000000000000000000000000000000000000000000000000000000000000000000000000000
310
00000000000096070707070707070000000000000303030303030303030303030303030303070707070707070707070700000000000000000707070707070796000000000000000000000000000000000000000000000000000000000000000000000000000000000000000000000000000000000000000000000000000000
310
00000000000000000000000000000000000000000000000000000000000000000000000000000000000000000000000000000000000000000000009607070707070707050505050505030303030303030303030303030303030707070707070707070700000000000000000000070707070707079600000000000000000000
310
00000000000000000000000000000000000000000000000000000000000000000000000000000000000000000000000000000000000000000000000000000000000000000000000000000000000000000000000000000000000000000000000000000000000000000000000000000000960707070707070705050505050000
310
03030303030303030303030303030707070707070707070700000000000000000000000707070707070796000000000000000000000000000000000000000000000000000000000000000000000000000000000000000000000000000000000000000000000000000000000000000000000000000000000000000000000000
310
00000000000000000000000000000000000000000000000000000000000000000000000000009607070707070707000000000000000303030303030303030303030300000000000000000000000000000000000000000000070707070707079600000000000000000000000000000000000000000000000000000000000000
310
00000000000000000000000000000000000000000000000000000000000000000000000000000000000000000000000000000000000000000000000000000000000000000000000000000000000000000000000000000000000000960707070707070700000000000000000303030303030303030303000000000000000000
310
00000000000000000000000000000707070707070796000000000000000000000000000000000000000000000000000000000000000000000000000000000000000000000000000000000000000000000000000000000000000000000000000000000000000000000000000000000000000000000000000000000000000000
310
00000000000000000000000000000000009607070707070707000000000000000000000003030303030000000000000000000707070706000000000000000000000000070707070707079600000000000000000000000000000000000000000000000000000000000000000000000000000000000000000000000000000000
310
00000000000000000000000000000000000000000000000000000000000000000000000000000000000000000000000000000000000000000000000000000000000000000000960707070707070700000000000000000000070707060606060707070707070707070707070707070000000000000000000007070707070707
310
96000000000000000000000000000000000000000000000000000000000000000000000000000000000000000000000000000000000000000000000000000000000000000000000000000000000000000000000000000000000000000000000000000000000000000000000000000000000000000000000000000096070707
310
07070707000000000000000000070707060606060607070707070707070707070707070707070000000005050505070707070707079600000000000000000000000000000000000000000000000000000000000000000000000000000000000000000000000000000000000000000000000000000000000000000000000000
310
00000000000000000000000000000000000000000000000000000000000000000000000000000000000000000000000000960707070707070700000000000000000707070706060606060607070707070707070707070707070705050500000505050507070707070707960000000000000000000000000000000000000000
310
00000000000000000000000000000000000000000000000000000000000000000000000000000000000000000000000000000000000000000000000000000000000000000000000000000000000000000000000000000000000000000000000000000000000096070707070707070000000000000000070707070706060606
310
07070707070707070707070707070707050505000000000000070707070707079600000000000000000000000000000000000000000000000000000000000000000000000000000000000000000000000000000000000000000000000000000000000000000000000000000000000000000000000000000000000000000000
310
00000000000000000000000000000000000000000000000000000000960707070707070700000000000000000707070707060707070707070707070707070707070707070705050000000000000007070707070707960000000000000000000000000000000000000000000000000000000000000000000000000000000000
310
00000000000000000000000000000000000000000000000000000000000000000000000000000000000000000000000000000000000000000000000000000000000000000000000000000000000000000096070707070707070000000000000000000707070606070707070707070707070707070707070707070505000000
310
00000000070707070707079600000000000000000000000000000000000000000000000000000000000000000000000000000000000000000000000000000000000000000000000000000000000000000000000000000000000000000000000000000000000000000000000000000000000000000000000000000000000000
310
00000000000000960707070707070700000000000000000000070707070707070707070707070707070707070707070705050000000000000007070707070707960000000000000000000000000000000000000000000000000000000000000000000000000000000000000000000000000000000000000000000000000000
310
00000000000000000000000000000000000000000000000000000000000000000000000000000000000000000000000000000000000000000000000096070707070707070000000000000000000007070707070707070707070707070707070707070707070505000000000000000707070707070796000000000000000000
310
00000000000000000000000000000000000000000000000000000000000000000000000000000000000000000000000000000000000000000000000000000000000000000000000000000000000000000000000000000000000000000000000000000000000000000000000000000000009607070707070707000000000000
310
00000000060607070707070707070707070707070707070707070705050000000000000007070707070707960000000000000000000000000000000000000000000000000000000000000000000000000000000000000000000000000000000000000000000000000000000000000000000000000000000000000000000000
310
00000000000000000000000000000000000000000000000000000000000000000000000000000096070707070707070000000000000000000006060707070707070707070707070707070707070707050505000000000000000707070707070796000000000000000000000000000000000000000000000000000000000000
310
00000000000000000000000000000000000000000000000000000000000000000000000000000000000000000000000000000000000000000000000000000000000000000000000000000000000000000000000000000000000000009607070707070707000000000000000000060606060607070707070707070707070707
310
07070706060505050000000000000007070707070707960000000000000000000000000000000000000000000000000000000000000000000000000000000000000000000000000000000000000000000000000000000000000000000000000000000000000000000000000000000000000000000000000000000000000000
310
00000000000000000000000000000000000096070707070707070000000000000000000606060606070707070707070707070707070707070606060505000000000000000707070707070796000000000000000000000000000000000000000000000000000000000000000000000000000000000000000000000000000000
310
00000000000000000000000000000000000000000000000000000000000000000000000000000000000000000000000000000000000000000000000000000000000000000000009607070707070707000000000000000000000606060607070707070707070707070707070707060606050500000000000000070707070707
310
07960000000000000000000000000000000000000000000000000000000000000000000000000000000000000000000000000000000000000000000000000000000000000000000000000000000000000000000000000000000000000000000000000000000000000000000000000000000000000000000000000000960707
310
07070707070000000000000000000007070707070707070707070707070707070707070707070505000000000000000707070707070796000000000000000000000000000000000000000000000000000000000000000000000000000000000000000000000000000000000000000000000000000000000000000000000000
310
00000000000000000000000000000000000000000000000000000000000000000000000000000000000000000000000000009607070707070707000000000000000000070707070707070707070707070707070707070707070707050500000000000000070707070707079600000000000000000000000000000000000000
310
00000000000000000000000000000000000000000000000000000000000000000000000000000000000000000000000000000000000000000000000000000000000000000000000000000000000000000000000000000000000000000000000000000000000000960707070707070700000000000000000707070707070707
310
07070707070707070707070707070707070505000000000000000707070707070796000000000000000000000000000000000000000000000000000000000000000000000000000000000000000000000000000000000000000000000000000000000000000000000000000000000000000000000000000000000000000000
310
00000000000000000000000000000000000000000000000000000000009607070707070707000000000000000007070707070606060707060606060606060707060606070707050500000000000000070707070707079600000000000000000000000000000000000000000000000000000000000000000000000000000000
310
00000000000000000000000000000000000000000000000000000000000000000000000000000000000000000000000000000000000000000000000000000000000000000000000000000000000000000000960707070707070700000000000000000707070706060606070706060606060606070706060607070705050000
310
00000000000707070707070796000000000000000000000000000000000000000000000000000000000000000000000000000000000000000000000000000000000000000000000000000000000000000000000000000000000000000000000000000000000000000000000000000000000000000000000000000000000000
310
00000000000000009607070707070707000000000000000000070707060606060606060606060606060606060606060707050500000000000000070707070707079600000000000000000000000000000000000000000000000000000000000000000000000000000000000000000000000000000000000000000000000000
310
00000000000000000000000000000000000000000000000000000000000000000000000000000000000000000000000000000000000000000000000000960707070707070700000000000000000007070707060606070606060606060606060606060605050505050500000000000007070707070707960000000000000000
310
00000000000000000000000000000000000000000000000000000000000000000000000000000000000000000000000000000000000000000000000000000000000000000000000000000000000000000000000000000000000000000000000000000000000000000000000000000000000096070707070707070000000000
310
00000000000707070707000000060606060606050505050505050505050505000000000000070707070707079600000000000000000000000000000000000000000000000000000000000000000000000000000000000000000000000000000000000000000000000000000000000000000000000000000000000000000000
310
00000000000000000000000000000000000000000000000000000000000000000000000000000000960707070707070700000000000000000000070505050505050505050505050505050505050505050000000000000000000007070707070707960000000000000000000000000000000000000000000000000000000000
310
00000000000000000000000000000000000000000000000000000000000000000000000000000000000000000000000000000000000000000000000000000000000000000000000000000000000000000000000000000000000000000096070707070707070000000000000000000706050606060607060606060606060606
310
06060606060507070000000000000000070707070707079600000000000000000000000000000000000000000000000000000000000000000000000000000000000000000000000000000000000000000000000000000000000000000000000000000000000000000000000000000000000000000000000000000000000000
310
00000000000000000000000000000000000000960707070707070700000000000000000707060506060606060606060606060606060606060505050505050000000000000007070707070707960000000000000000000000000000000000000000000000000000000000000000000000000000000000000000000000000000
310
00000000000000000000000000000000000000000000000000000000000000000000000000000000000000000000000000000000000000000000000000000000000000000000000096070707070707070000000000000000070606050606060606060606060606060606060606060505050505000000000000000707070707
310
07079600000000000000000000000000000000000000000000000000000000000000000000000000000000000000000000000000000000000000000000000000000000000000000000000000000000000000000000000000000000000000000000000000000000000000000000000000000000000000000000000000009607
310
07070707070700000000000000000706060506060606060606060606060606060606060606050505050000000000000007070707070707960000000000000000000000000000000000000000000000000000000000000000000000000000000000000000000000000000000000000000000000000000000000000000000000
310
00000000000000000000000000000000000000000000000000000000000000000000000000000000000000000000000000000096070707070707070000000000000000070606060606060606060606060606060606060606060606050505000000000000000707070707070796000000000000000000000000000000000000
310
00000000000000000000000000000000000000000000000000000000000000000000000000000000000000000000000000000000000000000000000000000000000000000000000000000000000000000000000000000000000000000000000000000000000000009607070707070707000000000000000007070606060606
310
06060606060606060606070606060606070705050000000000000007070707070707960000000000000000000000000000000000000000000000000000000000000000000000000000000000000000000000000000000000000000000000000000000000000000000000000000000000000000000000000000000000000000
310
00000000000000000000000000000000000000000000000000000000000096070707070707070505050505050500070707070706060607070707070707070707070606070707070505000000000000000707070707070796000000000000000000000000000000000000000000000000000000000000000000000000000000
310
00000000000000000000000000000000000000000000000000000000000000000000000000000000000000000000000000000000000000000000000000000000000000000000000000000000000000000000009607070707070707050505050505000000070707070707070707070707070707070707070707070707050500
310
00000000000007070707070707960000000000000000000000000000000000000000000000000000000000000000000000000000000000000000000000000000000000000000000000000000000000000000000000000000000000000000000000000000000000000000000000000000000000000000000000000000000000
310
00000000000000000096070707070707070000000000000000000707070707070707070707070707070707070707070505050505000000000000000707070707070796000000000000000000000000000000000000000000000000000000000000000000000000000000000000000000000000000000000000000000000000
310
00000000000000000000000000000000000000000000000000000000000000000000000000000000000000000000000000000000000000000000000000009607070707070707000000000000000000000707070707000000000000000000000000070707070700000000000000000000070707070707079600000000000000
310
00000000000000000000000000000000000000000000000000000000000000000000000000000000000000000000000000000000000000000000000000000000000000000000000000000000000000000000000000000000000000000000000000000000000000000000000000000000000000960707070707070705050505
310
05000505050005050505000005050505000500000000000000000000000000000000000000000707070707070796000000000000000000000000000000000000000000000000000000000000000000000000000000000000000000000000000000000000000000000000000000000000000000000000000000000000000000
310
00000000000000000000000000000000000000000000000000000000000000000000000000000000009607070707070707050505050505050505050505050505050505050500050000000000000000000000000000000000000000070707070707079600000000000000000000000000000000000000000000000000000000
310
00000000000000000000000000000000000000000000000000000000000000000000000000000000000000000000000000000000000000000000000000000000000000000000000000000000000000000000000000000000000000000000960707070707070707070707070707070707070707070707070707070707070707
310
07070707070707070707070707070707070707070707070796000000000000000000000000000000000000000000000000000000000000000000000000000000000000000000000000000000000000000000000000000000000000000000000000000000000000000000000000000000000000000000000000000000000000
310
00000000000000000000000000000000000000009607070707070707070707070707070707070707070707070707070707070707070707070707070707070707070707070707070707070707079600000000000000000000000000000000000000000000000000000000000000000000000000000000000000000000000000
310
00000000000000000000000000000000000000000000000000000000000000000000000000000000000000000000000000000000000000000000000000000000000000000000000000960707070707070707070707070707070707070707070707070707070707070707070707070707070707070707070707070707070707
310
07070796000000000000000000000000000000000000000000000000000000000000000000000000000000000000000000000000000000000000000000000000000000000000000000000000000000000000000000000000000000000000000000000000000000000000000000000000000000000000000000000000000096
310
07070707070707070707070707070707070707070707070707070707070707070707070707070707070707070707070707070707070707079600000000000000000000000000000000000000000000000000000000000000000000000000000000000000000000000000000000000000000000000000000000000000000000
310
00000000000000000000000000000000000000000000000000000000000000000000000000000000000000000000000000000000960707070707070707070707070707070707070707070707070707070707070707070707070707070707070707070707070707070707070707960000000000000000000000000000000000
310
00000000000000000000000000000000000000000000000000000000000000000000000000000000000000000000000000000000000000000000000000000000000000000000000000000000000000000000000000000000000000000000000000000000000000000096000707070707070707070707070707070707070707
310
07070707070707070707070707070707070707070707070707070707070707070707009600000000000000000000000000000000000000000000000000000000000000000000000000000000000000000000000000000000000000000000000000000000000000000000000000000000000000000000000000000000000000
310
00000000000000000000000000000000000000000000000000000000000000960000000707070707070707070707070707070707070707070707070707070707070707070707070707070707070707070707070707000000960000000000000000000000000000000000000000000000000000000000000000000000000000
310
00000000000000000000000000000000000000000000000000000000000000000000000000000000000000000000000000000000000000000000000000000000000000000000000000000000000000000000000096000000000000000000000000000000000000000505050505000505050500050505050000000000000000
310
00000000000000000000000000009600000000000000000000000000000000000000000000000000000000000000000000000000000000000000000000000000000000000000000000000000000000000000000000000000000000000000000000000000000000000000000000000000000000000000000000000000000000
310
00000000000000000000960000000000000000000000000000000000000000050505000005050505000505050000000000000000000000000000000000000000000000960000000000000000000000000000000000000000000000000000000000000000000000000000000000000000000000000000000000000000000000
310
00000000000000000000000000000000000000000000000000000000000000000000000000000000000000000000000000000000000000000000000000000096969696969696969696969696969696969696969696969696969696969696969696969696969696969696969696969696969696969696969696000000000000
310
00000000000000000000000000000000000000000000000000000000000000000000000000000000000000000000000000000000000000000000000000000000000000000000000000000000000000000000000000000000000000000000000000000000000000000000000000000000000000000000000000000000000000
310
000000000000000000000000000000000000000000000000000000000000000000000000000000000000000000000000000000000000000000000000000000000000000000000000000000000000000000000000000000000000000000000000000000000000000000000000
  0
ENDSEC
  0
EOF
